<?xml version="1.0" standalone="no"?><!DOCTYPE svg PUBLIC "-//W3C//DTD SVG 1.1//EN" "http://www.w3.org/Graphics/SVG/1.1/DTD/svg11.dtd" ><svg xmlns="http://www.w3.org/2000/svg"><metadata><json><![CDATA[
{
	"fontFamily": "primeicons",
	"majorVersion": 1,
	"minorVersion": 0,
	"copyright": "PrimeTek Informatics",
	"designer": "",
	"description": "Icon Library for Prime UI Libraries\nFont generated by IcoMoon.",
	"fontURL": "https://github.com/primefaces/primeicons",
	"license": "MIT",
	"licenseURL": "https://opensource.org/licenses/MIT",
	"version": "Version 1.0",
	"fontId": "primeicons",
	"psName": "primeicons",
	"subFamily": "Regular",
	"fullName": "primeicons"
}
]]></json></metadata><defs><font id="primeicons" horiz-adv-x="1024"><font-face units-per-em="1024" ascent="960" descent="-64"/><missing-glyph horiz-adv-x="1024"/><glyph unicode=" " horiz-adv-x="512"/><glyph unicode="" glyph-name="chevron-left" data-tags="chevron-left" d="M679.213-32.738c-0.086 0-0.19 0-0.292 0-17.22 0-32.796 7.035-44.013 18.388l-418.039 418.039c-11.33 11.344-18.339 27.010-18.339 44.311s7.007 32.967 18.339 44.313v0l418.033 418.033c11.167 10.427 26.211 16.828 42.747 16.828 34.631 0 62.705-28.074 62.705-62.705 0-16.538-6.402-31.58-16.864-42.785l0.034 0.037-373.722-373.722 373.722-373.722c11.33-11.344 18.339-27.010 18.339-44.311s-7.007-32.967-18.339-44.313v0c-11.222-11.36-26.798-18.394-44.019-18.394-0.102 0-0.205 0-0.307 0h0.016z"/><glyph unicode="" glyph-name="chevron-right" data-tags="chevron-right" d="M344.779-32.761c-0.086 0-0.19 0-0.292 0-17.221 0-32.798 7.035-44.016 18.389l-0.006 0.006c-11.331 11.345-18.34 27.011-18.34 44.313s7.008 32.969 18.34 44.315v0l373.739 373.739-373.739 373.739c-10.427 11.167-16.829 26.212-16.829 42.749 0 34.632 28.075 62.708 62.708 62.708 16.539 0 31.582-6.402 42.787-16.865l-0.037 0.034 418.053-418.053c11.331-11.345 18.34-27.011 18.34-44.313s-7.008-32.969-18.34-44.315v0l-418.053-418.053c-11.223-11.36-26.8-18.395-44.021-18.395-0.102 0-0.205 0-0.307 0h0.016z"/><glyph unicode="" glyph-name="chevron-down" data-tags="chevron-down" d="M512 185.734c-0.084 0-0.183 0-0.282 0-16.621 0-31.655 6.79-42.481 17.748l-403.49 403.49c-6.608 9.557-10.557 21.395-10.557 34.153 0 33.426 27.098 60.522 60.522 60.522 13.37 0 25.728-4.335 35.742-11.677l-0.17 0.119 360.715-358.295 360.715 358.295c9.294 6.106 20.686 9.741 32.927 9.741 33.426 0 60.522-27.098 60.522-60.522 0-11.002-2.935-21.318-8.065-30.207l0.155 0.294-403.485-403.485c-10.561-11.928-25.717-19.583-42.668-20.171l-0.102-0.002z"/><glyph unicode="" glyph-name="chevron-up" data-tags="chevron-up" d="M912.529 187.655c-0.083 0-0.182 0-0.279 0-16.5 0-31.424 6.74-42.17 17.619l-358.079 358.079-358.074-355.671c-9.226-6.061-20.534-9.669-32.685-9.669-33.181 0-60.080 26.899-60.080 60.080 0 10.921 2.914 21.161 8.005 29.985l-0.154-0.291 400.529 400.529c10.869 10.856 25.879 17.571 42.456 17.571s31.587-6.714 42.457-17.571v0l400.529-400.529c10.856-10.869 17.571-25.879 17.571-42.456s-6.714-31.587-17.571-42.457v0c-10.467-9.481-24.421-15.283-39.728-15.283-0.96 0-1.913 0.022-2.862 0.068l0.134-0.005z"/><glyph unicode="" glyph-name="caret-left" data-tags="caret-left" d="M777.445 0.063c-0.065 0-0.144 0-0.22 0-11.19 0-21.502 3.743-29.759 10.044l0.119-0.088-530.888 398.166c-12.143 9.177-19.908 23.59-19.908 39.817s7.765 30.639 19.784 39.726l0.124 0.091 530.888 398.166c8.229 6.251 18.645 10.014 29.941 10.014 8.203 0 15.94-1.984 22.762-5.498l-0.278 0.131c16.203-8.535 27.088-25.214 27.208-44.445v-796.35c-0.121-19.249-11.006-35.927-26.932-44.329l-0.275-0.133c-6.602-3.186-14.334-5.125-22.5-5.309l-0.063-0.002zM329.508 448l398.166-298.625v597.249z"/><glyph unicode="" glyph-name="caret-right" data-tags="caret-right" d="M246.514-0.008c-8.001 0.105-15.52 2.052-22.189 5.441l0.287-0.133c-16.574 8.253-27.783 25.040-27.876 44.458v796.469c0.092 19.426 11.302 36.213 27.587 44.339l0.287 0.132c6.449 3.33 14.077 5.284 22.158 5.284 11.175 0 21.478-3.731 29.729-10.017l-0.119 0.089 530.972-398.228c12.145-9.177 19.912-23.594 19.912-39.823s-7.766-30.645-19.789-39.733l-0.124-0.091-530.972-398.228c-8.14-6.214-18.456-9.957-29.645-9.957-0.077 0-0.156 0-0.232 0h0.012zM296.292 746.672v-597.343l398.228 298.672z"/><glyph unicode="" glyph-name="caret-down" data-tags="caret-down" d="M512 151.758c-0.092 0-0.203-0.002-0.311-0.002-15.157 0-28.607 7.307-37.020 18.589l-0.088 0.122-374.2 498.935c-5.874 7.735-9.411 17.522-9.411 28.14 0 7.708 1.865 14.982 5.168 21.391l-0.124-0.263c8.022 15.226 23.696 25.457 41.77 25.57h748.419c18.091-0.116 33.765-10.344 41.662-25.311l0.125-0.259c3.18-6.151 5.044-13.42 5.044-21.131 0-10.614-3.536-20.406-9.494-28.255l0.085 0.116-374.2-498.935c-8.503-11.404-21.951-18.712-37.108-18.712-0.109 0-0.218 0-0.329 0.002h0.017zM231.349 650.693l280.651-374.2 280.651 374.2z"/><glyph unicode="" glyph-name="caret-up" data-tags="caret-up" d="M886.087 151.847h-748.175c-18.084 0.115-33.754 10.339-41.649 25.303l-0.125 0.259c-3.18 6.148-5.042 13.416-5.042 21.125 0 10.612 3.535 20.4 9.492 28.247l-0.085-0.116 374.087 498.782c8.871 10.966 22.328 17.919 37.409 17.919s28.537-6.953 37.338-17.828l0.069-0.090 374.087-498.782c5.874-7.732 9.407-17.518 9.407-28.131 0-7.706-1.864-14.977-5.165-21.386l0.123 0.262c-8.019-15.222-23.689-25.45-41.757-25.562h-0.016zM231.436 245.369h561.131l-280.564 374.087z"/><glyph unicode="" glyph-name="search" data-tags="search" d="M440.071 79.585c-243.195 0-440.344 197.149-440.344 440.344s197.149 440.344 440.344 440.344c243.195 0 440.344-197.149 440.344-440.344v0c0-243.195-197.149-440.344-440.344-440.344v0zM440.071 871.969c-193.781 0-350.872-157.090-350.872-350.872s157.090-350.872 350.872-350.872c193.781 0 350.872 157.090 350.872 350.872v0c0 193.781-157.090 350.872-350.872 350.872v0zM979.828-63.687c-0.060 0-0.133 0-0.204 0-12.045 0-22.94 4.92-30.785 12.862l-241.52 241.52c-7.293 7.811-11.771 18.333-11.771 29.899 0 24.222 19.636 43.859 43.859 43.859 11.568 0 22.088-4.478 29.926-11.795l-0.026 0.023 241.516-241.516c7.925-7.934 12.827-18.892 12.827-30.993s-4.901-23.059-12.827-30.995v0c-7.849-7.945-18.744-12.866-30.789-12.866-0.071 0-0.144 0-0.215 0h0.011z"/><glyph unicode="" glyph-name="check" data-tags="check" horiz-adv-x="1088" d="M367.973 82.291c-12.364 0.429-23.354 5.979-30.973 14.583l-0.039 0.045-292.569 292.569c-12.118 7.943-20.011 21.462-20.011 36.822 0 24.237 19.649 43.886 43.886 43.886 16.258 0 30.454-8.843 38.038-21.983l0.112-0.213 261.556-259.802 612.637 610.884c6.739 4.429 14.999 7.063 23.874 7.063 24.237 0 43.886-19.649 43.886-43.886 0-7.977-2.129-15.457-5.848-21.903l0.112 0.213-643.651-643.651c-7.658-8.649-18.646-14.2-30.94-14.626l-0.073-0.001z"/><glyph unicode="" glyph-name="check-circle" data-tags="check-circle" d="M426.842 263.49c-11.361 0.894-21.337 6.182-28.346 14.147l-0.040 0.047-170.317 170.317c-2.623 5.368-4.157 11.68-4.157 18.35 0 23.516 19.064 42.579 42.579 42.579 6.67 0 12.983-1.534 18.603-4.269l-0.253 0.11 140.228-140.228 484.268 480.861c5.368 2.623 11.68 4.157 18.35 4.157 23.516 0 42.579-19.064 42.579-42.579 0-6.67-1.534-12.983-4.269-18.603l0.11 0.253-510.95-510.95c-7.048-8.010-17.025-13.299-28.241-14.184l-0.146-0.009zM512-62.95c-191.476 0.317-358.217 105.908-445.47 261.972l-1.328 2.587c-31.938 55.832-53.595 121.525-60.581 191.54l-0.166 2.053c-1.75 15.87-2.746 34.274-2.746 52.91 0 191.528 105.381 358.444 261.324 445.927l2.575 1.327c55.832 31.938 121.525 53.595 191.54 60.581l2.053 0.166c16.139 1.838 34.846 2.885 53.796 2.885 52.724 0 103.554-8.111 151.308-23.156l-3.563 0.969c19.66-4.032 34.236-21.19 34.236-41.754 0-23.516-19.064-42.579-42.579-42.579-5.793 0-11.317 1.158-16.352 3.253l0.282-0.104c-37.278 11.625-80.141 18.322-124.567 18.322-16.116 0-32.026-0.881-47.685-2.599l1.933 0.172c-60.018-6.3-114.675-24.271-163.354-51.622l2.121 1.095c-49.065-27.393-90.495-62.305-124.293-103.695l-0.607-0.765c-59.499-72.093-95.584-165.431-95.584-267.195 0-16.071 0.899-31.933 2.652-47.536l-0.174 1.916c6.3-60.018 24.271-114.675 51.622-163.354l-1.095 2.121c27.393-49.065 62.305-90.495 103.695-124.293l0.765-0.607c72.093-59.499 165.431-95.584 267.195-95.584 16.071 0 31.933 0.899 47.536 2.652l-1.916-0.174c60.018 6.3 114.675 24.271 163.354 51.622l-2.121-1.095c49.065 27.393 90.495 62.305 124.293 103.695l0.607 0.765c59.499 72.093 95.584 165.431 95.584 267.195 0 16.071-0.899 31.933-2.652 47.536l0.174-1.916c-0.129 1.276-0.204 2.758-0.204 4.258 0 24.725 20.044 44.769 44.769 44.769 23.226 0 42.321-17.686 44.551-40.326l0.015-0.185c1.73-15.781 2.716-34.082 2.716-52.613 0-191.743-105.619-358.82-261.851-446.222l-2.584-1.328c-56.511-33.262-123.144-55.912-194.296-63.403l-2.137-0.182c-17.6 0-35.767 0-52.798 0z"/><glyph unicode="" glyph-name="times" data-tags="times" d="M586.932 448l312.455 312.455c10.394 9.708 16.875 23.488 16.875 38.79 0 29.283-23.737 53.020-53.020 53.020-15.299 0-29.084-6.481-38.759-16.841l-0.027-0.029-312.455-312.455-312.455 312.455c-9.444 8.816-22.161 14.228-36.145 14.228-29.283 0-53.020-23.737-53.020-53.020 0-13.985 5.412-26.701 14.261-36.174l-0.027 0.029 312.455-312.455-312.455-312.455c-9.582-9.589-15.504-22.839-15.504-37.468s5.926-27.874 15.504-37.469v0c9.589-9.582 22.839-15.504 37.468-15.504s27.874 5.926 37.469 15.504v0l312.455 312.455 312.455-312.455c9.589-9.582 22.839-15.504 37.468-15.504s27.874 5.926 37.469 15.504v0c9.582 9.589 15.504 22.839 15.504 37.468s-5.926 27.874-15.504 37.469v0z"/><glyph unicode="" glyph-name="times-circle" data-tags="times-circle" d="M512-64c-282.769 0-512 229.231-512 512s229.231 512 512 512c282.769 0 512-229.231 512-512v0c0-282.769-229.231-512-512-512v0zM512 874.667c-235.641 0-426.667-191.025-426.667-426.667s191.025-426.667 426.667-426.667c235.641 0 426.667 191.025 426.667 426.667v0c0 235.641-191.025 426.667-426.667 426.667v0zM341.333 234.667c-0.059 0-0.129 0-0.199 0-11.717 0-22.316 4.787-29.948 12.512l-0.004 0.004c-7.709 7.719-12.479 18.379-12.479 30.151s4.768 22.432 12.479 30.152v0l341.333 341.333c7.599 7.095 17.835 11.451 29.087 11.451 23.564 0 42.667-19.103 42.667-42.667 0-11.253-4.356-21.488-11.475-29.112l0.023 0.025-341.333-341.333c-7.636-7.729-18.235-12.516-29.952-12.516-0.069 0-0.14 0-0.209 0h0.011zM682.667 234.667c-0.059 0-0.129 0-0.199 0-11.717 0-22.316 4.787-29.948 12.512l-341.337 341.337c-7.095 7.599-11.451 17.835-11.451 29.087 0 23.564 19.103 42.667 42.667 42.667 11.253 0 21.488-4.356 29.112-11.475l-0.025 0.023 341.333-341.333c7.709-7.719 12.479-18.379 12.479-30.151s-4.768-22.432-12.479-30.152v0c-7.636-7.729-18.235-12.516-29.952-12.516-0.069 0-0.14 0-0.209 0h0.011z"/><glyph unicode="" glyph-name="plus" data-tags="plus" d="M559.485 495.485v395.695c0 26.223-21.257 47.485-47.485 47.485s-47.485-21.257-47.485-47.485v0-395.695h-395.695c-26.223 0-47.485-21.257-47.485-47.485s21.257-47.485 47.485-47.485v0h395.695v-395.695c0.352-26.082 21.403-47.133 47.447-47.485h0.033c26.223 0 47.485 21.257 47.485 47.485v0 395.695h395.695c26.223 0 47.485 21.257 47.485 47.485v0c-0.352 26.082-21.403 47.133-47.447 47.485h-0.033z"/><glyph unicode="" glyph-name="plus-circle" data-tags="plus-circle" d="M512-64c-282.769 0-512 229.231-512 512s229.231 512 512 512c282.769 0 512-229.231 512-512v0c0-282.769-229.231-512-512-512v0zM512 874.667c-235.641 0-426.667-191.025-426.667-426.667s191.025-426.667 426.667-426.667c235.641 0 426.667 191.025 426.667 426.667v0c0 235.641-191.025 426.667-426.667 426.667v0zM512 177.777c-23.436 0.316-42.351 19.231-42.667 42.636v455.141c0 23.564 19.103 42.667 42.667 42.667s42.667-19.103 42.667-42.667v0-455.111c-0.316-23.436-19.231-42.351-42.636-42.667h-0.031zM739.556 405.333h-455.111c-23.564 0-42.667 19.103-42.667 42.667s19.103 42.667 42.667 42.667v0h455.111c23.564 0 42.667-19.103 42.667-42.667s-19.103-42.667-42.667-42.667v0z"/><glyph unicode="" glyph-name="minus" data-tags="minus" d="M967.085 391.114h-910.171c-31.417 0-56.886 25.469-56.886 56.886s25.469 56.886 56.886 56.886v0h910.171c31.417 0 56.886-25.469 56.886-56.886s-25.469-56.886-56.886-56.886v0z"/><glyph unicode="" glyph-name="minus-circle" data-tags="minus-circle" d="M512-64c-282.769 0-512 229.231-512 512s229.231 512 512 512c282.769 0 512-229.231 512-512v0c0-282.769-229.231-512-512-512v0zM512 874.667c-235.641 0-426.667-191.025-426.667-426.667s191.025-426.667 426.667-426.667c235.641 0 426.667 191.025 426.667 426.667v0c0 235.641-191.025 426.667-426.667 426.667v0zM739.556 405.333h-455.111c-23.564 0-42.667 19.103-42.667 42.667s19.103 42.667 42.667 42.667v0h455.111c23.564 0 42.667-19.103 42.667-42.667s-19.103-42.667-42.667-42.667v0z"/><glyph unicode="" glyph-name="circle-on" data-tags="circle-on, deprecate" d="M1024 448c0-282.769-229.231-512-512-512s-512 229.231-512 512c0 282.769 229.231 512 512 512s512-229.231 512-512z"/><glyph unicode="" glyph-name="circle-off" data-tags="circle-off, deprecate" d="M512-64c-282.769 0-512 229.231-512 512s229.231 512 512 512c282.769 0 512-229.231 512-512v0c0-282.769-229.231-512-512-512v0zM512 874.667c-235.641 0-426.667-191.025-426.667-426.667s191.025-426.667 426.667-426.667c235.641 0 426.667 191.025 426.667 426.667v0c0 235.641-191.025 426.667-426.667 426.667v0z"/><glyph unicode="" glyph-name="sort-down" data-tags="sort-down" d="M512 198.703c-0.059 0-0.133 0-0.206 0-12.080 0-23.010 4.935-30.879 12.901l-410.613 410.613c-7.95 7.958-12.867 18.951-12.867 31.089 0 24.283 19.676 43.971 43.952 43.993h821.216c23.565-0.924 42.321-20.252 42.321-43.961 0-11.301-4.262-21.608-11.268-29.401l0.035 0.040-410.607-410.607c-7.678-8.671-18.694-14.235-31.015-14.662l-0.074-0.003zM207.563 609.309l304.437-304.437 304.437 304.437z"/><glyph unicode="" glyph-name="sort-up" data-tags="sort-up" d="M921.888 199.141h-819.773c-0.088 0-0.19-0.002-0.294-0.002-18.019 0-33.47 11-40.004 26.651l-0.105 0.287c-1.856 4.68-2.932 10.103-2.932 15.777 0 11.845 4.689 22.595 12.313 30.495l409.875 409.875c7.945 7.935 18.917 12.844 31.034 12.844s23.089-4.908 31.035-12.844v0l409.888-409.888c7.91-7.94 12.801-18.896 12.801-30.993 0-6.145-1.262-11.997-3.542-17.308l0.108 0.285c-7.032-14.993-22.001-25.192-39.352-25.192-0.369 0-0.739 0.004-1.106 0.013l0.055-0.002zM208.099 286.973h607.804l-303.901 303.901z"/><glyph unicode="" glyph-name="sort" data-tags="sort" d="M841.149 516.572h-658.298c-0.083 0-0.179-0.001-0.275-0.001-16.883 0-31.357 10.305-37.478 24.968l-0.099 0.269c-2.034 4.708-3.217 10.189-3.217 15.949 0 11.333 4.583 21.597 11.994 29.037l329.147 329.147c7.443 7.433 17.723 12.033 29.075 12.033s21.632-4.598 29.076-12.033v0l329.149-329.149c7.411-7.439 11.993-17.704 11.993-29.036 0-5.757-1.183-11.24-3.319-16.216l0.101 0.267c-6.22-14.932-20.695-25.236-37.577-25.236-0.097 0-0.193 0-0.29 0.001h0.015zM282.145 598.859h459.712l-229.855 229.855zM512-32.009c-0.056 0-0.125 0-0.191 0-11.299 0-21.519 4.615-28.879 12.065l-329.153 329.153c-7.411 7.439-11.993 17.704-11.993 29.036 0 5.757 1.183 11.24 3.319 16.216l-0.101-0.267c6.22 14.932 20.695 25.236 37.577 25.236 0.097 0 0.193 0 0.29-0.001h658.283c0.083 0 0.179 0.001 0.275 0.001 16.883 0 31.357-10.305 37.478-24.968l0.099-0.269c2.034-4.708 3.217-10.189 3.217-15.949 0-11.333-4.583-21.597-11.994-29.037l-329.147-329.147c-7.363-7.453-17.584-12.068-28.883-12.068-0.067 0-0.135 0-0.202 0h0.010zM282.145 297.141l229.855-229.855 229.855 229.855z"/><glyph unicode="" glyph-name="step-backward" data-tags="step-backward" d="M776.253-63.989c-13.652 0.164-25.983 5.679-35.022 14.542l-462.434 462.434c-8.953 8.963-14.491 21.342-14.491 35.013s5.537 26.049 14.491 35.014v0l462.442 462.442c8.959 8.925 21.319 14.443 34.966 14.443 6.933 0 13.536-1.424 19.529-3.996l-0.322 0.122c17.981-7.491 30.389-24.922 30.389-45.252 0-0.116 0-0.233-0.002-0.348v0.019-924.882c0-0.099 0.002-0.215 0.002-0.331 0-20.33-12.41-37.761-30.067-45.132l-0.324-0.119c-5.648-2.471-12.229-3.927-19.143-3.964h-0.014zM383.839 448l342.867-342.867v685.734zM247.747-63.989c-27.215 0.367-49.181 22.332-49.548 49.511v924.917c0 27.364 22.183 49.548 49.548 49.548s49.548-22.183 49.548-49.548v0-924.882c-0.367-27.215-22.332-49.181-49.511-49.548h-0.036z"/><glyph unicode="" glyph-name="step-forward" data-tags="step-forward" d="M247.747-63.989c-6.929 0.037-13.509 1.493-19.478 4.087l0.321-0.124c-17.981 7.491-30.389 24.922-30.389 45.252 0 0.116 0 0.231 0.002 0.348v-0.019 924.882c0 0.099-0.002 0.215-0.002 0.331 0 20.33 12.41 37.761 30.067 45.132l0.324 0.119c5.67 2.449 12.271 3.874 19.206 3.874 13.649 0 26.007-5.518 34.967-14.444l462.441-462.441c8.953-8.963 14.491-21.342 14.491-35.013s-5.537-26.049-14.491-35.014v0l-462.442-462.442c-9.030-8.855-21.362-14.37-34.982-14.533h-0.031zM297.295 790.867v-685.734l342.867 342.867zM776.253-63.989c-27.215 0.367-49.181 22.332-49.548 49.511v924.917c0 27.364 22.183 49.548 49.548 49.548s49.548-22.183 49.548-49.548v0-924.882c-0.367-27.215-22.332-49.181-49.513-49.548h-0.036z"/><glyph unicode="" glyph-name="th-large" data-tags="th-large" d="M325.818 494.545h-186.182c-77.119 0-139.636 62.518-139.636 139.636v0 186.182c0 77.119 62.518 139.636 139.636 139.636v0h186.182c77.119 0 139.636-62.518 139.636-139.636v0-186.182c0-77.119-62.518-139.636-139.636-139.636v0zM139.636 866.909c-25.567-0.345-46.201-20.979-46.545-46.512v-186.215c0.345-25.567 20.979-46.201 46.512-46.545h186.215c25.567 0.345 46.201 20.979 46.545 46.512v186.215c-0.345 25.567-20.979 46.201-46.512 46.545h-0.033zM325.818-64h-186.182c-77.119 0-139.636 62.518-139.636 139.636v0 186.182c0 77.119 62.518 139.636 139.636 139.636v0h186.182c77.119 0 139.636-62.518 139.636-139.636v0-186.182c0-77.119-62.518-139.636-139.636-139.636v0zM139.636 308.364c-25.567-0.345-46.201-20.979-46.545-46.512v-186.215c0.345-25.567 20.979-46.201 46.512-46.545h186.215c25.567 0.345 46.201 20.979 46.545 46.512v186.215c-0.345 25.567-20.979 46.201-46.512 46.545h-0.033zM884.364 494.545h-186.182c-77.119 0-139.636 62.518-139.636 139.636v0 186.182c0 77.119 62.518 139.636 139.636 139.636v0h186.182c77.119 0 139.636-62.518 139.636-139.636v0-186.182c0-77.119-62.518-139.636-139.636-139.636v0zM698.182 866.909c-25.567-0.345-46.201-20.979-46.545-46.512v-186.215c0.345-25.567 20.979-46.201 46.512-46.545h186.215c25.567 0.345 46.201 20.979 46.545 46.512v186.215c-0.345 25.567-20.979 46.201-46.512 46.545h-0.033zM884.364-64h-186.182c-77.119 0-139.636 62.518-139.636 139.636v0 186.182c0 77.119 62.518 139.636 139.636 139.636v0h186.182c77.119 0 139.636-62.518 139.636-139.636v0-186.182c0-77.119-62.518-139.636-139.636-139.636v0zM698.182 308.364c-25.567-0.345-46.201-20.979-46.545-46.512v-186.215c0.345-25.567 20.979-46.201 46.512-46.545h186.215c25.567 0.345 46.201 20.979 46.545 46.512v186.215c-0.345 25.567-20.979 46.201-46.512 46.545h-0.033z"/><glyph unicode="" glyph-name="arrow-down" data-tags="arrow-down" d="M512-63.983c-0.068 0-0.15 0-0.231 0-13.607 0-25.914 5.559-34.777 14.53l-396.378 396.378c-8.239 8.824-13.297 20.711-13.297 33.777 0 27.364 22.183 49.547 49.547 49.547 13.068 0 24.953-5.058 33.806-13.325l-0.029 0.026 361.361-361.361 361.361 361.361c8.824 8.239 20.711 13.297 33.777 13.297 27.364 0 49.547-22.183 49.547-49.547 0-13.068-5.058-24.953-13.325-33.806l0.026 0.029-396.374-396.374c-8.867-8.976-21.175-14.534-34.782-14.534-0.081 0-0.163 0-0.243 0h0.012zM512-63.983c-27.215 0.367-49.18 22.332-49.547 49.511v924.907c0 27.364 22.183 49.547 49.547 49.547s49.547-22.183 49.547-49.547v0-924.872c-0.367-27.215-22.332-49.18-49.511-49.547h-0.036z"/><glyph unicode="" glyph-name="arrow-left" data-tags="arrow-left" d="M445.937 2.079c-0.068 0-0.15 0-0.231 0-13.607 0-25.914 5.559-34.777 14.53l-396.378 396.378c-8.952 8.963-14.491 21.342-14.491 35.013s5.537 26.049 14.491 35.014v0l396.374 396.374c8.824 8.239 20.711 13.297 33.777 13.297 27.364 0 49.547-22.183 49.547-49.547 0-13.068-5.058-24.953-13.325-33.806l0.026 0.029-361.361-361.361 361.361-361.361c8.952-8.963 14.491-21.342 14.491-35.013s-5.537-26.049-14.491-35.014v0c-8.867-8.976-21.175-14.534-34.782-14.534-0.081 0-0.163 0-0.243 0h0.012zM974.437 398.453h-924.872c-27.364 0-49.547 22.183-49.547 49.547s22.183 49.547 49.547 49.547v0h924.872c27.364 0 49.547-22.183 49.547-49.547s-22.183-49.547-49.547-49.547v0z"/><glyph unicode="" glyph-name="arrow-right" data-tags="arrow-right" d="M578.063 2.079c-0.068 0-0.15 0-0.231 0-13.607 0-25.914 5.559-34.777 14.53l-0.005 0.005c-8.952 8.963-14.491 21.342-14.491 35.013s5.537 26.049 14.491 35.014v0l361.361 361.361-361.361 361.361c-8.239 8.824-13.297 20.711-13.297 33.777 0 27.364 22.183 49.547 49.547 49.547 13.068 0 24.953-5.058 33.806-13.325l-0.029 0.026 396.374-396.374c8.952-8.963 14.491-21.342 14.491-35.013s-5.537-26.049-14.491-35.014v0l-396.374-396.374c-8.867-8.976-21.175-14.534-34.782-14.534-0.081 0-0.163 0-0.243 0h0.012zM974.437 398.453h-924.872c-27.364 0-49.547 22.183-49.547 49.547s22.183 49.547 49.547 49.547v0h924.872c27.364 0 49.547-22.183 49.547-49.547s-22.183-49.547-49.547-49.547v0z"/><glyph unicode="" glyph-name="arrow-up" data-tags="arrow-up" d="M908.374 464.516c-0.068 0-0.15 0-0.231 0-13.607 0-25.914 5.559-34.777 14.53l-361.366 361.366-361.361-361.361c-8.824-8.239-20.711-13.297-33.777-13.297-27.364 0-49.547 22.183-49.547 49.547 0 13.068 5.058 24.953 13.325 33.806l-0.026-0.029 396.374 396.374c8.963 8.952 21.342 14.491 35.013 14.491s26.049-5.537 35.014-14.491v0l396.374-396.374c8.952-8.963 14.491-21.342 14.491-35.013s-5.537-26.049-14.491-35.014v0c-8.867-8.976-21.175-14.534-34.782-14.534-0.081 0-0.163 0-0.243 0h0.012zM512-63.983c-27.215 0.367-49.18 22.332-49.547 49.511v924.907c0 27.364 22.183 49.547 49.547 49.547s49.547-22.183 49.547-49.547v0-924.872c-0.367-27.215-22.332-49.18-49.511-49.547h-0.036z"/><glyph unicode="" glyph-name="bars" data-tags="bars" d="M974.438 398.453h-924.874c-27.364 0-49.547 22.183-49.547 49.547s22.183 49.547 49.547 49.547v0h924.874c27.364 0 49.547-22.183 49.547-49.547s-22.183-49.547-49.547-49.547v0zM974.438 695.735h-924.874c-27.364 0-49.547 22.183-49.547 49.547s22.183 49.547 49.547 49.547v0h924.874c27.364 0 49.547-22.183 49.547-49.547s-22.183-49.547-49.547-49.547v0zM974.438 101.171h-924.874c-27.364 0-49.547 22.183-49.547 49.547s22.183 49.547 49.547 49.547v0h924.874c27.364 0 49.547-22.183 49.547-49.547s-22.183-49.547-49.547-49.547v0z"/><glyph unicode="" glyph-name="arrow-circle-down" data-tags="arrow-circle-down" d="M512-64c-282.769 0-512 229.231-512 512s229.231 512 512 512c282.769 0 512-229.231 512-512v0c0-282.769-229.231-512-512-512v0zM512 874.667c-235.641 0-426.667-191.025-426.667-426.667s191.025-426.667 426.667-426.667c235.641 0 426.667 191.025 426.667 426.667v0c0 235.641-191.025 426.667-426.667 426.667v0zM512 177.777c-0.059 0-0.129 0-0.199 0-11.717 0-22.316 4.787-29.948 12.512l-227.56 227.56c-7.095 7.599-11.451 17.835-11.451 29.087 0 23.564 19.103 42.667 42.667 42.667 11.253 0 21.488-4.356 29.112-11.475l-0.025 0.023 197.404-197.404 197.404 197.404c7.599 7.095 17.835 11.451 29.087 11.451 23.564 0 42.667-19.103 42.667-42.667 0-11.253-4.356-21.488-11.475-29.112l0.023 0.025-227.556-227.556c-7.636-7.729-18.235-12.516-29.952-12.516-0.069 0-0.14 0-0.209 0h0.011zM512 177.777c-23.436 0.316-42.351 19.231-42.667 42.636v455.141c0 23.564 19.103 42.667 42.667 42.667s42.667-19.103 42.667-42.667v0-455.111c-0.316-23.436-19.231-42.351-42.636-42.667h-0.031z"/><glyph unicode="" glyph-name="arrow-circle-left" data-tags="arrow-circle-left" d="M512-64c-282.769 0-512 229.231-512 512s229.231 512 512 512c282.769 0 512-229.231 512-512v0c0-282.769-229.231-512-512-512v0zM512 874.667c-235.641 0-426.667-191.025-426.667-426.667s191.025-426.667 426.667-426.667c235.641 0 426.667 191.025 426.667 426.667v0c0 235.641-191.025 426.667-426.667 426.667v0zM512 177.777c-0.059 0-0.129 0-0.199 0-11.717 0-22.316 4.787-29.948 12.512l-227.56 227.56c-7.709 7.719-12.479 18.379-12.479 30.151s4.768 22.432 12.479 30.152v0l227.556 227.556c7.599 7.095 17.835 11.451 29.087 11.451 23.564 0 42.667-19.103 42.667-42.667 0-11.253-4.356-21.488-11.475-29.112l0.023 0.025-197.404-197.404 197.404-197.404c7.709-7.719 12.479-18.379 12.479-30.151s-4.768-22.432-12.479-30.152v0c-7.636-7.729-18.235-12.516-29.952-12.516-0.069 0-0.14 0-0.209 0h0.011zM739.556 405.333h-455.111c-23.564 0-42.667 19.103-42.667 42.667s19.103 42.667 42.667 42.667v0h455.111c23.564 0 42.667-19.103 42.667-42.667s-19.103-42.667-42.667-42.667v0z"/><glyph unicode="" glyph-name="arrow-circle-right" data-tags="arrow-circle-right" d="M512-64c-282.769 0-512 229.231-512 512s229.231 512 512 512c282.769 0 512-229.231 512-512v0c0-282.769-229.231-512-512-512v0zM512 874.667c-235.641 0-426.667-191.025-426.667-426.667s191.025-426.667 426.667-426.667c235.641 0 426.667 191.025 426.667 426.667v0c0 235.641-191.025 426.667-426.667 426.667v0zM512 177.777c-0.059 0-0.129 0-0.199 0-11.717 0-22.316 4.787-29.948 12.512l-0.004 0.004c-7.709 7.719-12.479 18.379-12.479 30.151s4.768 22.432 12.479 30.152v0l197.404 197.404-197.404 197.404c-7.095 7.599-11.451 17.835-11.451 29.087 0 23.564 19.103 42.667 42.667 42.667 11.253 0 21.488-4.356 29.112-11.475l-0.025 0.023 227.556-227.556c7.709-7.719 12.479-18.379 12.479-30.151s-4.768-22.432-12.479-30.152v0l-227.556-227.556c-7.636-7.729-18.235-12.516-29.952-12.516-0.069 0-0.14 0-0.209 0h0.011zM739.556 405.333h-455.111c-23.564 0-42.667 19.103-42.667 42.667s19.103 42.667 42.667 42.667v0h455.111c23.564 0 42.667-19.103 42.667-42.667s-19.103-42.667-42.667-42.667v0z"/><glyph unicode="" glyph-name="arrow-circle-up" data-tags="arrow-circle-up" d="M512-64c-282.769 0-512 229.231-512 512s229.231 512 512 512c282.769 0 512-229.231 512-512v0c0-282.769-229.231-512-512-512v0zM512 874.667c-235.641 0-426.667-191.025-426.667-426.667s191.025-426.667 426.667-426.667c235.641 0 426.667 191.025 426.667 426.667v0c0 235.641-191.025 426.667-426.667 426.667v0zM739.556 405.333c-0.059 0-0.129 0-0.199 0-11.717 0-22.316 4.787-29.948 12.512l-197.408 197.408-197.404-197.404c-7.599-7.095-17.835-11.451-29.087-11.451-23.564 0-42.667 19.103-42.667 42.667 0 11.253 4.356 21.488 11.475 29.112l-0.023-0.025 227.556 227.556c7.719 7.709 18.379 12.479 30.151 12.479s22.432-4.768 30.152-12.479v0l227.556-227.556c7.709-7.719 12.479-18.379 12.479-30.151s-4.768-22.432-12.479-30.152v0c-7.636-7.729-18.235-12.516-29.952-12.516-0.069 0-0.14 0-0.209 0h0.011zM512 177.777c-23.436 0.316-42.351 19.231-42.667 42.636v455.141c0 23.564 19.103 42.667 42.667 42.667s42.667-19.103 42.667-42.667v0-455.111c-0.316-23.436-19.231-42.351-42.636-42.667h-0.031z"/><glyph unicode="" glyph-name="exclamation-triangle" data-tags="exclamation-triangle" d="M980.247-4.701h-936.496c-16.088 0.051-30.159 8.633-37.933 21.458l-0.111 0.198c-3.59 6.323-5.705 13.888-5.705 21.949s2.115 15.627 5.823 22.173l-0.117-0.224 468.247 819.433c8.296 12.379 22.232 20.419 38.044 20.419s29.748-8.039 37.942-20.254l0.104-0.165 468.247-819.433c3.59-6.323 5.705-13.888 5.705-21.949s-2.115-15.627-5.823-22.173l0.117 0.224c-7.885-13.022-21.958-21.606-38.038-21.657h-0.007zM119.257 83.095h785.486l-392.743 687.154zM512 317.22c-24.113 0.325-43.573 19.786-43.898 43.866v204.89c0 24.244 19.654 43.898 43.898 43.898s43.898-19.654 43.898-43.898v0-204.858c-0.325-24.113-19.786-43.573-43.866-43.898h-0.032zM512 141.627c-24.113 0.325-43.573 19.786-43.898 43.866v29.297c0 24.244 19.654 43.898 43.898 43.898s43.898-19.654 43.898-43.898v0-29.265c-0.325-24.113-19.786-43.573-43.866-43.898h-0.032z"/><glyph unicode="" glyph-name="info" data-tags="info" d="M512-63.999c-36.682 0.495-66.288 30.1-66.783 66.735v623.353c0 36.883 29.9 66.783 66.783 66.783s66.783-29.9 66.783-66.783v0-623.305c-0.495-36.682-30.1-66.288-66.735-66.783h-0.048zM512 781.913c-36.682 0.495-66.288 30.1-66.783 66.735v44.569c0 36.883 29.9 66.783 66.783 66.783s66.783-29.9 66.783-66.783v0-44.521c-0.495-36.682-30.1-66.288-66.735-66.783h-0.048z"/><glyph unicode="" glyph-name="info-circle" data-tags="info-circle" d="M512 177.777c-23.436 0.316-42.351 19.231-42.667 42.636v284.475c0 23.564 19.103 42.667 42.667 42.667s42.667-19.103 42.667-42.667v0-284.444c-0.316-23.436-19.231-42.351-42.636-42.667h-0.031zM512 604.444c-23.436 0.316-42.351 19.231-42.667 42.636v28.475c0 23.564 19.103 42.667 42.667 42.667s42.667-19.103 42.667-42.667v0-28.444c-0.316-23.436-19.231-42.351-42.636-42.667h-0.031zM512-64c-282.769 0-512 229.231-512 512s229.231 512 512 512c282.769 0 512-229.231 512-512v0c0-282.769-229.231-512-512-512v0zM512 874.667c-235.641 0-426.667-191.025-426.667-426.667s191.025-426.667 426.667-426.667c235.641 0 426.667 191.025 426.667 426.667v0c0 235.641-191.025 426.667-426.667 426.667v0z"/><glyph unicode="" glyph-name="home" data-tags="home" d="M980.714 462.648c-0.058 0-0.126 0-0.195 0-9.879 0-18.984 3.304-26.275 8.867l0.106-0.077-442.349 331.615-442.349-331.615c-7.252-5.487-16.423-8.788-26.365-8.788-24.268 0-43.942 19.674-43.942 43.942 0 14.326 6.856 27.052 17.467 35.074l0.11 0.080 468.714 351.536c7.252 5.487 16.423 8.788 26.365 8.788s19.113-3.301 26.475-8.868l-0.11 0.080 468.714-351.536c9.942-8.121 16.239-20.379 16.239-34.109 0-9.129-2.783-17.608-7.548-24.634l0.099 0.154c-7.474-11.934-20.322-19.902-35.068-20.503l-0.085-0.003zM863.536-6.067h-703.071c-24.136 0.325-43.617 19.805-43.942 43.91v556.629c0 24.268 19.674 43.942 43.942 43.942s43.942-19.674 43.942-43.942v0-512.656h615.187v512.656c0 24.268 19.674 43.942 43.942 43.942s43.942-19.674 43.942-43.942v0-556.598c-0.325-24.136-19.805-43.617-43.91-43.942h-0.032zM629.178-6.067c-24.136 0.325-43.617 19.805-43.942 43.91v366.215h-146.474v-366.183c0-24.268-19.674-43.942-43.942-43.942s-43.942 19.674-43.942 43.942v0 410.125c0.325 24.136 19.805 43.617 43.91 43.942h234.389c24.136-0.325 43.617-19.805 43.942-43.91v-410.157c-0.325-24.136-19.805-43.617-43.91-43.942h-0.032z"/><glyph unicode="" glyph-name="spinner" data-tags="spinner" d="M512-63.985c-282.573 0.249-511.548 229.377-511.548 511.985 0 282.761 229.224 511.985 511.985 511.985 136.039 0 259.684-53.057 351.374-139.607l-0.248 0.232c7.709-7.718 12.478-18.378 12.478-30.15s-4.768-22.431-12.478-30.151v0c-7.654-7.849-18.334-12.718-30.15-12.718s-22.495 4.869-30.142 12.709l-0.008 0.009c-76.159 71.371-178.876 115.207-291.832 115.207-235.949 0-427.224-191.274-427.224-427.224s191.274-427.224 427.224-427.224c235.845 0 427.056 191.106 427.224 426.913v0.016c0 23.563 19.102 42.665 42.665 42.665s42.665-19.102 42.665-42.665v0c0-282.761-229.224-511.985-511.985-511.985v0z"/><glyph unicode="" glyph-name="calendar" data-tags="calendar" d="M788.745 849.288h-69.186v69.186c0 22.926-18.586 41.512-41.512 41.512s-41.512-18.586-41.512-41.512v0-69.186h-249.071v69.186c0 22.926-18.586 41.512-41.512 41.512s-41.512-18.586-41.512-41.512v0-69.186h-69.186c-84.063 0-152.209-68.147-152.209-152.209v0-608.839c0-84.063 68.147-152.209 152.209-152.209v0h553.491c84.063 0 152.209 68.147 152.209 152.209v0 608.839c0 84.063-68.147 152.209-152.209 152.209v0zM235.255 766.265h69.186v-69.186c0-22.926 18.586-41.512 41.512-41.512s41.512 18.586 41.512 41.512v0 69.186h249.071v-69.186c0-22.926 18.586-41.512 41.512-41.512s41.512 18.586 41.512 41.512v0 69.186h69.186c38.21 0 69.186-30.976 69.186-69.186v0-152.209h-691.862v152.209c0 38.21 30.976 69.186 69.186 69.186v0zM788.745 19.053h-553.491c-38.21 0-69.186 30.976-69.186 69.186v0 373.606h691.862v-373.606c0-38.21-30.976-69.186-69.186-69.186v0z"/><glyph unicode="" glyph-name="chevron-circle-left" data-tags="chevron-circle-left" d="M512-64c-282.769 0-512 229.231-512 512s229.231 512 512 512c282.769 0 512-229.231 512-512v0c0-282.769-229.231-512-512-512v0zM512 874.667c-235.641 0-426.667-191.025-426.667-426.667s191.025-426.667 426.667-426.667c235.641 0 426.667 191.025 426.667 426.667v0c0 235.641-191.025 426.667-426.667 426.667v0zM625.777 177.777c-0.059 0-0.129 0-0.199 0-11.717 0-22.316 4.787-29.948 12.512l-227.56 227.56c-7.709 7.719-12.479 18.379-12.479 30.151s4.768 22.432 12.479 30.152v0l227.556 227.556c7.599 7.095 17.835 11.451 29.087 11.451 23.564 0 42.667-19.103 42.667-42.667 0-11.253-4.356-21.488-11.475-29.112l0.023 0.025-197.404-197.404 197.404-197.404c7.709-7.719 12.479-18.379 12.479-30.151s-4.768-22.432-12.479-30.152v0c-7.636-7.729-18.235-12.516-29.952-12.516-0.069 0-0.14 0-0.209 0h0.011z"/><glyph unicode="" glyph-name="chevron-circle-down" data-tags="chevron-circle-down" d="M512-64c-282.769 0-512 229.231-512 512s229.231 512 512 512c282.769 0 512-229.231 512-512v0c0-282.769-229.231-512-512-512v0zM512 874.667c-235.641 0-426.667-191.025-426.667-426.667s191.025-426.667 426.667-426.667c235.641 0 426.667 191.025 426.667 426.667v0c0 235.641-191.025 426.667-426.667 426.667v0zM512 291.556c-0.059 0-0.129 0-0.199 0-11.717 0-22.316 4.787-29.948 12.512l-227.56 227.56c-7.095 7.599-11.451 17.835-11.451 29.087 0 23.564 19.103 42.667 42.667 42.667 11.253 0 21.488-4.356 29.112-11.475l-0.025 0.023 197.404-197.404 197.404 197.404c7.599 7.095 17.835 11.451 29.087 11.451 23.564 0 42.667-19.103 42.667-42.667 0-11.253-4.356-21.488-11.475-29.112l0.023 0.025-227.556-227.556c-7.636-7.729-18.235-12.516-29.952-12.516-0.069 0-0.14 0-0.209 0h0.011z"/><glyph unicode="" glyph-name="chevron-circle-right" data-tags="chevron-circle-right" d="M512-64c-282.769 0-512 229.231-512 512s229.231 512 512 512c282.769 0 512-229.231 512-512v0c0-282.769-229.231-512-512-512v0zM512 874.667c-235.641 0-426.667-191.025-426.667-426.667s191.025-426.667 426.667-426.667c235.641 0 426.667 191.025 426.667 426.667v0c0 235.641-191.025 426.667-426.667 426.667v0zM398.223 177.777c-0.059 0-0.129 0-0.199 0-11.717 0-22.316 4.787-29.948 12.512l-0.004 0.004c-7.709 7.719-12.479 18.379-12.479 30.151s4.768 22.432 12.479 30.152v0l197.404 197.404-197.404 197.404c-7.095 7.599-11.451 17.835-11.451 29.087 0 23.564 19.103 42.667 42.667 42.667 11.253 0 21.488-4.356 29.112-11.475l-0.025 0.023 227.556-227.556c7.709-7.719 12.479-18.379 12.479-30.151s-4.768-22.432-12.479-30.152v0l-227.556-227.556c-7.636-7.729-18.235-12.516-29.952-12.516-0.069 0-0.14 0-0.209 0h0.011z"/><glyph unicode="" glyph-name="chevron-circle-up" data-tags="chevron-circle-up" d="M512-64c-282.769 0-512 229.231-512 512s229.231 512 512 512c282.769 0 512-229.231 512-512v0c0-282.769-229.231-512-512-512v0zM512 874.667c-235.641 0-426.667-191.025-426.667-426.667s191.025-426.667 426.667-426.667c235.641 0 426.667 191.025 426.667 426.667v0c0 235.641-191.025 426.667-426.667 426.667v0zM739.556 291.556c-0.059 0-0.129 0-0.199 0-11.717 0-22.316 4.787-29.948 12.512l-197.408 197.408-197.404-197.404c-7.599-7.095-17.835-11.451-29.087-11.451-23.564 0-42.667 19.103-42.667 42.667 0 11.253 4.356 21.488 11.475 29.112l-0.023-0.025 227.556 227.556c7.719 7.709 18.379 12.479 30.151 12.479s22.432-4.768 30.152-12.479v0l227.556-227.556c7.709-7.719 12.479-18.379 12.479-30.151s-4.768-22.432-12.479-30.152v0c-7.636-7.729-18.235-12.516-29.952-12.516-0.069 0-0.14 0-0.209 0h0.011z"/><glyph unicode="" glyph-name="angle-double-down" data-tags="angle-double-down" d="M512 57.451c-0.077 0-0.172 0-0.257 0-15.319 0-29.178 6.257-39.16 16.361l-0.005 0.005-258.132 260.364c-5.628 8.568-8.981 19.073-8.981 30.354 0 30.81 24.977 55.792 55.792 55.792 10.145 0 19.649-2.705 27.846-7.433l-0.269 0.143 223.173-223.173 223.173 223.173c7.925 4.589 17.434 7.289 27.577 7.289 30.81 0 55.792-24.977 55.792-55.792 0-11.285-3.353-21.785-9.108-30.566l0.128 0.209-258.132-258.132c-9.737-10.997-23.705-18.053-39.331-18.593l-0.092-0.004zM512 466.595c-0.077 0-0.172 0-0.257 0-15.319 0-29.178 6.257-39.16 16.361l-0.005 0.005-258.132 262.596c-3.437 7.037-5.446 15.305-5.446 24.041 0 30.81 24.977 55.792 55.792 55.792 8.741 0 17.009-2.009 24.377-5.597l-0.329 0.145 223.173-223.173 223.173 223.173c7.037 3.437 15.305 5.446 24.041 5.446 30.81 0 55.792-24.977 55.792-55.792 0-8.741-2.009-17.009-5.597-24.377l0.145 0.329-260.364-260.364c-9.233-10.493-22.31-17.429-37.002-18.583l-0.192-0.012z"/><glyph unicode="" glyph-name="angle-double-left" data-tags="angle-double-left" d="M436.578 127.456c-0.073 0-0.172 0-0.262 0-15.535 0-29.584 6.348-39.707 16.591l-0.004 0.004-261.716 263.977c-10.22 10.237-16.542 24.365-16.542 39.973s6.32 29.742 16.542 39.973v0l261.716 261.716c8.688 5.708 19.333 9.102 30.778 9.102 31.242 0 56.568-25.327 56.568-56.568 0-10.286-2.746-19.925-7.538-28.233l0.144 0.272-226.267-226.267 226.267-226.267c10.22-10.237 16.542-24.365 16.542-39.973s-6.32-29.742-16.542-39.973v0c-9.854-8.923-22.994-14.389-37.408-14.389-0.902 0-1.8 0.024-2.694 0.065l0.124-0.004zM851.399 127.456c-15.091 1.188-28.351 8.214-37.656 18.795l-0.055 0.065-263.977 263.977c-10.22 10.237-16.542 24.365-16.542 39.973s6.32 29.742 16.542 39.973v0l263.977 259.453c7.129 3.487 15.515 5.521 24.379 5.521 31.242 0 56.568-25.327 56.568-56.568 0-8.864-2.038-17.25-5.669-24.715l0.144 0.336-226.267-226.267 226.267-226.267c8.942-9.959 14.408-23.201 14.408-37.714s-5.466-27.749-14.45-37.763l0.045 0.055c-9.366-10.641-22.619-17.666-37.517-18.843l-0.193-0.014z"/><glyph unicode="" glyph-name="angle-double-right" data-tags="angle-double-right" d="M587.102 128.818c-0.073 0-0.171 0-0.259 0-15.47 0-29.463 6.321-39.534 16.519l-0.004 0.004c-10.173 10.194-16.472 24.266-16.472 39.803s6.29 29.611 16.472 39.809v0l225.304 225.304-225.304 225.304c-3.536 7.161-5.605 15.588-5.605 24.492 0 31.111 25.217 56.325 56.325 56.325 10.665 0 20.638-2.967 29.14-8.115l-0.251 0.143 262.858-262.858c10.173-10.194 16.472-24.266 16.472-39.803s-6.29-29.611-16.472-39.809v0l-262.858-258.35c-9.83-11.106-23.933-18.225-39.711-18.775l-0.094-0.004zM174.042 128.818c-15.029 1.181-28.228 8.178-37.495 18.716l-0.053 0.063c-8.9 9.92-14.342 23.099-14.342 37.554s5.442 27.63 14.391 37.603l-0.045-0.053 225.304 225.304-225.304 225.304c-3.467 7.105-5.497 15.45-5.497 24.276 0 31.111 25.217 56.325 56.325 56.325 8.82 0 17.176-2.028 24.609-5.644l-0.339 0.145 262.858-262.858c10.173-10.194 16.472-24.266 16.472-39.803s-6.29-29.611-16.472-39.809v0l-262.858-258.35c-9.32-10.596-22.521-17.598-37.357-18.765l-0.192-0.014z"/><glyph unicode="" glyph-name="angle-double-up" data-tags="angle-double-up" d="M768.744 466.343c-0.079 0-0.163 0-0.259 0-15.11 0-28.77 6.175-38.616 16.135l-220.071 220.071-220.067-220.067c-6.991-3.451-15.223-5.479-23.923-5.479-30.385 0-55.016 24.631-55.016 55.016 0 10.412 2.899 20.155 7.927 28.458l-0.139-0.247 254.542 254.542c9.955 9.943 23.695 16.087 38.874 16.087s28.926-6.151 38.877-16.087v0l256.744-256.744c9.943-9.955 16.087-23.695 16.087-38.874s-6.151-28.926-16.087-38.877v0c-9.583-8.683-22.363-13.999-36.378-13.999-0.883 0-1.752 0.019-2.623 0.067l0.127-0.007zM768.744 62.882c-14.683 1.159-27.57 7.987-36.629 18.283l-0.055 0.060-220.067 220.067-220.067-220.067c-6.935-3.391-15.091-5.371-23.707-5.371-30.385 0-55.016 24.631-55.016 55.016 0 8.623 1.987 16.772 5.515 24.038l-0.139-0.331 256.744 256.744c9.955 9.943 23.695 16.087 38.874 16.087s28.926-6.151 38.877-16.087v0l252.342-256.744c8.695-9.691 14.011-22.565 14.011-36.678s-5.316-26.99-14.059-36.726l0.043 0.055c-9.104-10.351-22.001-17.184-36.486-18.331l-0.187-0.012z"/><glyph unicode="" glyph-name="angle-down" data-tags="angle-down" d="M512 235.79c-0.086 0-0.192 0-0.293 0-17.487 0-33.3 7.139-44.687 18.671l-0.006 0.006-294.549 297.097c-6.421 9.779-10.246 21.757-10.246 34.639 0 35.163 28.506 63.662 63.662 63.662 11.573 0 22.424-3.091 31.773-8.485l-0.306 0.164 254.656-254.656 254.656 254.656c9.044 5.23 19.894 8.318 31.469 8.318 35.163 0 63.662-28.506 63.662-63.662 0-12.88-3.82-24.863-10.395-34.879l0.149 0.244-297.097-297.097c-10.874-11.029-25.782-18.050-42.325-18.671l-0.112-0.002z"/><glyph unicode="" glyph-name="angle-left" data-tags="angle-left" d="M645.785 123.096c-0.077 0-0.174 0-0.264 0-15.744 0-29.987 6.434-40.247 16.814l-267.57 267.57c-10.36 10.374-16.768 24.697-16.768 40.517s6.404 30.147 16.768 40.517v0l267.566 265.27c8.804 5.784 19.594 9.224 31.197 9.224 31.667 0 57.335-25.671 57.335-57.335 0-10.424-2.782-20.194-7.64-28.617l0.144 0.274-229.343-229.343 229.343-229.343c10.36-10.374 16.768-24.697 16.768-40.517s-6.404-30.147-16.768-40.517v0c-9.987-9.044-23.307-14.584-37.917-14.584-0.914 0-1.824 0.023-2.732 0.064l0.124-0.004z"/><glyph unicode="" glyph-name="angle-right" data-tags="angle-right" d="M377.809 122.106c-16.204 0.566-30.605 7.836-40.589 19.11l-0.054 0.059c-10.396 10.404-16.822 24.776-16.822 40.643s6.424 30.235 16.822 40.645v0l230.044 230.044-230.044 230.044c-2.746 6.474-4.334 14.004-4.334 21.905 0 31.765 25.748 57.513 57.513 57.513 10.324 0 20.016-2.723 28.392-7.484l-0.286 0.149 268.384-268.384c10.396-10.406 16.822-24.773 16.822-40.643s-6.424-30.236-16.822-40.645v0l-268.384-263.783c-10.036-11.334-24.433-18.607-40.543-19.164l-0.096-0.006z"/><glyph unicode="" glyph-name="angle-up" data-tags="angle-up" d="M804.999 238.714c-0.087 0-0.194 0-0.29 0-17.244 0-32.838 7.040-44.069 18.415l-251.149 251.149-251.143-251.143c-7.978-3.94-17.369-6.249-27.304-6.249-34.676 0-62.787 28.109-62.787 62.787 0 11.887 3.305 23 9.042 32.478l-0.157-0.277 292.999 292.999c11.357 11.344 27.043 18.363 44.37 18.363s33.008-7.014 44.37-18.363v0l292.999-292.999c11.344-11.357 18.363-27.043 18.363-44.37s-7.014-33.008-18.363-44.37v0c-11.24-11.41-26.866-18.481-44.134-18.481-0.966 0-1.925 0.024-2.88 0.070l0.133-0.002z"/><glyph unicode="" glyph-name="upload" data-tags="upload" d="M875.959-64h-727.917c-82.563 3.472-148.18 71.248-148.18 154.349 0 2.309 0.051 4.607 0.151 6.89l-0.011-0.325v175.543c0 24.237 19.648 43.886 43.886 43.886s43.886-19.648 43.886-43.886v0-175.543c-0.162-1.762-0.255-3.81-0.255-5.881 0-34.276 25.406-62.617 58.412-67.222l0.357-0.041h729.673c33.364 4.645 58.77 32.987 58.77 67.263 0 2.069-0.093 4.118-0.274 6.141l0.019-0.261v175.543c0 24.237 19.648 43.886 43.886 43.886s43.886-19.648 43.886-43.886v0-175.543c0.091-1.983 0.143-4.309 0.143-6.646 0-82.485-64.648-149.87-146.039-154.251l-0.389-0.016zM746.058 638.172c-0.060 0-0.133 0-0.204 0-12.052 0-22.954 4.923-30.804 12.869l-203.048 203.048-203.044-203.044c-7.816-7.297-18.344-11.778-29.918-11.778-24.237 0-43.886 19.648-43.886 43.886 0 11.575 4.48 22.102 11.803 29.944l-0.023-0.026 234.058 234.058c7.939 7.93 18.904 12.835 31.012 12.835s23.073-4.904 31.013-12.835v0l234.058-234.058c7.93-7.939 12.835-18.904 12.835-31.012s-4.904-23.073-12.835-31.013v0c-7.854-7.95-18.756-12.874-30.808-12.874-0.071 0-0.144 0-0.215 0h0.011zM512 228.571c-24.106 0.325-43.561 19.78-43.886 43.854v643.688c0 24.237 19.648 43.886 43.886 43.886s43.886-19.648 43.886-43.886v0-643.657c-0.325-24.106-19.78-43.561-43.854-43.886h-0.032z"/><glyph unicode="" glyph-name="ban" data-tags="ban" d="M512 960c-282.769 0-512-229.231-512-512s229.231-512 512-512c282.769 0 512 229.231 512 512v0c0 282.769-229.231 512-512 512v0zM85.333 448c0 0.111 0 0.24 0 0.369 0 102.621 36.521 196.712 97.276 269.985l-0.565-0.701 599.609-599.609c-72.916-60.16-167.308-96.645-270.223-96.645-235.327 0-426.097 190.771-426.097 426.097 0 0.177 0 0.353 0 0.531v-0.028zM841.956 178.347l-599.609 599.609c72.855 59.977 167.108 96.344 269.855 96.344 235.327 0 426.097-190.771 426.097-426.097 0-102.747-36.367-197-96.931-270.591l0.587 0.735z"/><glyph unicode="" glyph-name="star-fill" data-tags="star-fill" d="M1021.85 566.517c-4.841 15.030-17.644 26.152-33.316 28.484l-0.227 0.028-303.002 44.165-135.848 274.491c-7.746 12.831-21.614 21.279-37.457 21.279s-29.71-8.447-37.346-21.083l-0.11-0.195-135.848-274.491-303.002-44.165c-15.899-2.36-28.701-13.481-33.462-28.219l-0.081-0.292c-1.397-4-2.204-8.612-2.204-13.413 0-11.571 4.687-22.048 12.267-29.634v0l220.265-213.556-51.991-301.885c-0.38-2.136-0.597-4.594-0.597-7.102 0-14.016 6.787-26.448 17.254-34.186l0.115-0.081c6.76-4.866 15.204-7.783 24.332-7.783 7.263 0 14.096 1.847 20.052 5.097l-0.219-0.11 270.579 142.557 271.137-142.557c5.647-3.156 12.387-5.020 19.564-5.031h0.004c9.211 0.109 17.721 3.021 24.742 7.922l-0.143-0.094c10.582 7.821 17.369 20.251 17.369 34.267 0 2.509-0.218 4.967-0.634 7.356l0.037-0.254-52.551 301.885 219.705 213.556c7.83 7.626 12.687 18.27 12.687 30.050 0 4.646-0.756 9.117-2.151 13.294l0.085-0.296z"/><glyph unicode="" glyph-name="star" data-tags="star" d="M802.661-41.092c-7.178 0.012-13.918 1.875-19.772 5.137l0.207-0.106-271.096 142.535-271.096-142.535c-5.737-3.14-12.567-4.986-19.829-4.986-9.126 0-17.571 2.916-24.452 7.867l0.124-0.085c-10.58 7.82-17.366 20.248-17.366 34.262 0 2.509 0.217 4.966 0.634 7.355l-0.037-0.254 52.543 301.84-220.232 213.524c-7.577 7.585-12.265 18.059-12.265 29.629 0 4.8 0.807 9.412 2.291 13.706l-0.089-0.295c4.841 15.028 17.641 26.148 33.311 28.48l0.227 0.028 302.957 44.158 135.828 274.45c7.745 12.829 21.611 21.276 37.451 21.276s29.706-8.446 37.341-21.080l0.11-0.195 135.828-274.45 302.957-44.158c15.896-2.359 28.697-13.479 33.457-28.215l0.081-0.292c1.397-4 2.204-8.611 2.204-13.411 0-11.569-4.686-22.045-12.265-29.63v0l-220.232-213.524 51.984-301.84c0.38-2.135 0.597-4.593 0.597-7.101 0-14.014-6.786-26.444-17.251-34.181l-0.115-0.081c-6.725-4.703-15.021-7.598-23.979-7.824l-0.056-0.001zM512 195.349c7.119-0.088 13.834-1.727 19.85-4.594l-0.287 0.123 215.201-111.792-40.805 239.795c-0.368 2.129-0.579 4.58-0.579 7.081 0 11.813 4.698 22.528 12.328 30.38l-0.010-0.010 174.396 167.689-240.912 35.774c-13.783 2.252-25.168 10.868-31.19 22.677l-0.111 0.241-107.88 217.995-107.88-218.555c-6.135-12.049-17.52-20.666-31.056-22.884l-0.246-0.033-240.912-35.215 174.396-167.689c7.619-7.842 12.317-18.557 12.317-30.37 0-2.501-0.211-4.952-0.614-7.338l0.035 0.257-40.805-241.472 215.201 111.792c5.628 3.296 12.279 5.497 19.381 6.135l0.183 0.013z"/><glyph unicode="" glyph-name="refresh" data-tags="refresh" d="M512-63.452c-234.044 0-423.774 189.73-423.774 423.774s189.73 423.774 423.774 423.774v0h146.13c24.211 0 43.839-19.627 43.839-43.839s-19.627-43.839-43.839-43.839v0h-146.13c-185.621 0-336.097-150.475-336.097-336.097s150.475-336.097 336.097-336.097c185.621 0 336.097 150.475 336.097 336.097v0c0 24.211 19.627 43.839 43.839 43.839s43.839-19.627 43.839-43.839v0c-0.333-233.911-189.864-423.443-423.743-423.774h-0.032zM512 521.064c-0.060 0-0.133 0-0.204 0-12.039 0-22.929 4.918-30.771 12.856l-0.004 0.004c-7.921 7.931-12.821 18.884-12.821 30.979s4.899 23.048 12.821 30.98v0l144.376 144.376-144.376 144.376c-8.595 8.025-13.953 19.423-13.953 32.074 0 24.211 19.627 43.839 43.839 43.839 12.65 0 24.048-5.358 32.049-13.927l0.023-0.026 175.355-175.355c7.921-7.931 12.821-18.884 12.821-30.979s-4.899-23.048-12.821-30.98v0l-175.355-175.355c-7.846-7.942-18.736-12.86-30.775-12.86-0.071 0-0.144 0-0.215 0h0.011z"/><glyph unicode="" glyph-name="user" data-tags="user" d="M512 431.484c-136.816 0-247.725 110.91-247.725 247.725s110.91 247.725 247.725 247.725c136.816 0 247.725-110.91 247.725-247.725v0c0-136.816-110.91-247.725-247.725-247.725v0zM512 827.845c-82.088 0-148.635-66.547-148.635-148.635s66.547-148.635 148.635-148.635c82.088 0 148.635 66.547 148.635 148.635v0c0 82.088-66.547 148.635-148.635 148.635v0zM974.421-30.935c-27.214 0.367-49.178 22.331-49.545 49.509v0.036c0 128.817-70.024 214.696-412.876 214.696s-412.876-85.879-412.876-214.696c0-27.363-22.182-49.545-49.545-49.545s-49.545 22.182-49.545 49.545v0c0 313.786 358.706 313.786 511.966 313.786s511.966 0 511.966-313.786c-0.367-27.214-22.331-49.178-49.509-49.545h-0.036z"/><glyph unicode="" glyph-name="window-minimize" data-tags="window-minimize" d="M863.070 959.977h-702.14c-88.866 0-160.907-72.041-160.907-160.907v0-351.070c0-24.236 19.648-43.884 43.884-43.884s43.884 19.648 43.884 43.884v0 351.070c0 40.394 32.746 73.139 73.139 73.139v0h702.14c40.394 0 73.139-32.746 73.139-73.139v0-702.14c0-40.394-32.746-73.139-73.139-73.139v0h-351.070c-24.236 0-43.884-19.648-43.884-43.884s19.648-43.884 43.884-43.884v0h351.070c88.866 0 160.907 72.041 160.907 160.907v0 702.14c0 88.866-72.041 160.907-160.907 160.907v0zM465.775 378.372c5.003-2.189 10.831-3.478 16.956-3.511h234.059c24.236 0 43.884 19.648 43.884 43.884s-19.648 43.884-43.884 43.884v0h-128.141l188.408 188.408c7.297 7.815 11.777 18.343 11.777 29.916 0 24.236-19.648 43.884-43.884 43.884-11.574 0-22.101-4.48-29.942-11.802l0.026 0.023-188.408-188.408v128.141c0 24.236-19.648 43.884-43.884 43.884s-43.884-19.648-43.884-43.884v0-234.047c0.033-6.137 1.322-11.965 3.62-17.252l-0.11 0.284c4.316-10.739 12.665-19.089 23.125-23.305l0.28-0.099zM277.953 316.349h-175.535c-56.418-0.33-102.065-45.976-102.396-102.364v-175.567c0.33-56.418 45.976-102.065 102.364-102.396h175.567c56.418 0.33 102.065 45.976 102.396 102.364v175.567c-0.33 56.418-45.976 102.065-102.364 102.396h-0.032zM292.581 38.418c0-8.079-6.55-14.628-14.628-14.628v0h-175.535c-8.079 0-14.628 6.55-14.628 14.628v0 175.535c0 8.079 6.55 14.628 14.628 14.628v0h175.535c8.079 0 14.628-6.55 14.628-14.628v0z"/><glyph unicode="" glyph-name="window-maximize" data-tags="window-maximize" d="M863.070-63.977h-351.070c-24.236 0-43.884 19.648-43.884 43.884s19.648 43.884 43.884 43.884v0h351.070c40.394 0 73.139 32.746 73.139 73.139v0 702.14c0 40.394-32.746 73.139-73.139 73.139v0h-702.14c-40.394 0-73.139-32.746-73.139-73.139v0-351.070c0-24.236-19.648-43.884-43.884-43.884s-43.884 19.648-43.884 43.884v0 351.070c0 88.866 72.041 160.907 160.907 160.907v0h702.14c88.866 0 160.907-72.041 160.907-160.907v0-702.14c0-88.866-72.041-160.907-160.907-160.907v0zM746.047 404.116c-24.105 0.325-43.559 19.779-43.884 43.852v190.195h-190.163c-24.236 0-43.884 19.648-43.884 43.884s19.648 43.884 43.884 43.884v0h234.047c24.105-0.325 43.559-19.779 43.884-43.852v-234.079c-0.325-24.105-19.779-43.559-43.852-43.884h-0.032zM482.745 374.861c-11.709 0.922-21.991 6.371-29.214 14.58l-0.041 0.048c-6.935 7.728-11.175 17.996-11.175 29.255s4.24 21.528 11.211 29.297l-0.036-0.041 263.303 263.303c7.815 7.297 18.343 11.777 29.916 11.777 24.236 0 43.884-19.648 43.884-43.884 0-11.574-4.48-22.101-11.802-29.942l0.023 0.026-266.813-259.792c-7.264-8.256-17.547-13.707-29.106-14.619l-0.151-0.010zM277.953-63.977h-175.535c-56.418 0.33-102.065 45.976-102.396 102.364v175.567c0.33 56.418 45.976 102.065 102.364 102.396h175.567c56.418-0.33 102.065-45.976 102.396-102.364v-175.567c-0.33-56.418-45.976-102.065-102.364-102.396h-0.032zM102.418 228.581c-8.079 0-14.628-6.55-14.628-14.628v0-175.535c0-8.079 6.55-14.628 14.628-14.628v0h175.535c8.079 0 14.628 6.55 14.628 14.628v0 175.535c0 8.079-6.55 14.628-14.628 14.628v0z"/><glyph unicode="" glyph-name="external-link" data-tags="external-link" d="M862.106-62.571h-700.213c-88.622 0-160.465 71.843-160.465 160.465v0 700.213c0 88.622 71.843 160.465 160.465 160.465v0h350.106c24.17 0 43.763-19.594 43.763-43.763s-19.594-43.763-43.763-43.763v0h-350.106c-40.283 0-72.938-32.656-72.938-72.938v0-700.213c0-40.283 32.656-72.938 72.938-72.938v0h700.213c40.283 0 72.938 32.656 72.938 72.938v0 350.106c0 24.17 19.594 43.763 43.763 43.763s43.763-19.594 43.763-43.763v0-350.106c0-88.622-71.843-160.465-160.465-160.465v0zM978.808 637.641c-24.038 0.324-43.439 19.725-43.763 43.732v189.673h-189.641c-24.17 0-43.763 19.594-43.763 43.763s19.594 43.763 43.763 43.763v0h233.405c24.038-0.324 43.439-19.725 43.763-43.732v-233.436c-0.324-24.038-19.725-43.439-43.732-43.763h-0.031zM599.527 491.763c-11.677 0.919-21.931 6.354-29.134 14.54l-0.041 0.048c-6.916 7.706-11.145 17.947-11.145 29.175s4.229 21.469 11.18 29.216l-0.036-0.041 379.281 379.281c8.011 8.58 19.39 13.929 32.018 13.929 24.17 0 43.763-19.594 43.763-43.763 0-12.628-5.349-24.007-13.903-31.994l-0.026-0.023-382.782-375.78c-7.244-8.233-17.498-13.669-29.026-14.579l-0.15-0.010z"/><glyph unicode="" glyph-name="trash" data-tags="trash" d="M979.856 640.991h-935.714c-24.224 0-43.862 19.638-43.862 43.862s19.638 43.862 43.862 43.862h935.714c24.224 0 43.862-19.638 43.862-43.862s-19.638-43.862-43.862-43.862v0zM771.66-63.718h-519.321c-2.865-0.208-6.208-0.328-9.577-0.328-74.752 0-135.856 58.437-140.12 132.119l-0.018 0.377v613.477c0 24.224 19.638 43.862 43.862 43.862s43.862-19.638 43.862-43.862v0-613.477c0-23.977 27.486-44.447 58.483-44.447h519.321c32.75 0 58.483 20.468 58.483 44.447v613.477c0 26.162 21.208 47.37 47.37 47.37s47.37-21.208 47.37-47.37v0-613.477c-4.282-74.060-65.385-132.496-140.136-132.496-3.37 0-6.712 0.119-10.022 0.352l0.445-0.025zM778.678 696.548c-0.175-0.003-0.382-0.004-0.589-0.004-23.9 0-43.276 19.376-43.276 43.276 0 0.207 0.001 0.414 0.004 0.62v-0.032 87.138c0 23.977-28.071 44.447-58.483 44.447h-326.915c-32.166 0-58.483-20.468-58.483-44.447v-87.138c0-24.224-19.638-43.862-43.862-43.862s-43.862 19.638-43.862 43.862v0 87.138c4.697 74.022 65.883 132.278 140.675 132.278 1.945 0 3.88-0.040 5.806-0.118l-0.276 0.008h325.161c2.174 0.119 4.719 0.188 7.28 0.188 74.82 0 136.023-58.3 140.66-131.951l0.021-0.407v-87.138c0.003-0.174 0.004-0.38 0.004-0.585 0-24.224-19.638-43.862-43.862-43.862-0.001 0-0.003 0-0.004 0v0zM407.901 155.59c-24.092 0.325-43.537 19.769-43.862 43.83v264.955c0 24.224 19.638 43.862 43.862 43.862s43.862-19.638 43.862-43.862v0-264.339c0.003-0.174 0.004-0.38 0.004-0.585 0-24.224-19.638-43.862-43.862-43.862-0.001 0-0.003 0-0.004 0v0zM616.099 155.59c-24.224 0-43.862 19.638-43.862 43.862v0 264.924c0 24.224 19.638 43.862 43.862 43.862s43.862-19.638 43.862-43.862v0-264.339c0-0.001 0-0.003 0-0.004 0-24.342-19.568-44.112-43.83-44.443h-0.032z"/><glyph unicode="" glyph-name="user-minus" data-tags="user-minus" d="M512 403.48c-122.938 0-222.599 99.66-222.599 222.599s99.66 222.599 222.599 222.599c122.938 0 222.599-99.66 222.599-222.599v0c0-122.938-99.66-222.599-222.599-222.599v0zM512 759.638c-73.762 0-133.559-59.797-133.559-133.559s59.797-133.559 133.559-133.559c73.762 0 133.559 59.797 133.559 133.559v0c0 73.762-59.797 133.559-133.559 133.559v0zM927.518-12.038c-24.454 0.33-44.19 20.066-44.52 44.488v0.032c0 115.751-62.922 192.919-370.998 192.919s-370.998-77.168-370.998-192.919c0-24.587-19.932-44.52-44.52-44.52s-44.52 19.932-44.52 44.52v0c0 281.959 322.323 281.959 460.038 281.959s460.038 0 460.038-281.959c-0.33-24.454-20.066-44.19-44.488-44.52h-0.032zM1031.396 403.48h-207.758c-24.587 0-44.52 19.932-44.52 44.52s19.932 44.52 44.52 44.52v0h207.758c24.587 0 44.52-19.932 44.52-44.52s-19.932-44.52-44.52-44.52v0z"/><glyph unicode="" glyph-name="user-plus" data-tags="user-plus" d="M512 403.48c-122.938 0-222.599 99.66-222.599 222.599s99.66 222.599 222.599 222.599c122.938 0 222.599-99.66 222.599-222.599v0c0-122.938-99.66-222.599-222.599-222.599v0zM512 759.638c-73.762 0-133.559-59.797-133.559-133.559s59.797-133.559 133.559-133.559c73.762 0 133.559 59.797 133.559 133.559v0c0 73.762-59.797 133.559-133.559 133.559v0zM927.518-12.038c-24.454 0.33-44.19 20.066-44.52 44.488v0.032c0 115.751-62.922 192.919-370.998 192.919s-370.998-77.168-370.998-192.919c0-24.587-19.932-44.52-44.52-44.52s-44.52 19.932-44.52 44.52v0c0 281.959 322.323 281.959 460.038 281.959s460.038 0 460.038-281.959c-0.33-24.454-20.066-44.19-44.488-44.52h-0.032zM927.518 299.6c-24.454 0.33-44.19 20.066-44.52 44.488v207.79c0 24.587 19.932 44.52 44.52 44.52s44.52-19.932 44.52-44.52v0-207.758c-0.33-24.454-20.066-44.19-44.488-44.52h-0.032zM1031.396 403.48h-207.758c-24.587 0-44.52 19.932-44.52 44.52s19.932 44.52 44.52 44.52v0h207.758c24.587 0 44.52-19.932 44.52-44.52s-19.932-44.52-44.52-44.52v0z"/><glyph unicode="" glyph-name="clock" data-tags="clock" d="M512-64c-282.769 0-512 229.231-512 512s229.231 512 512 512c282.769 0 512-229.231 512-512v0c0-282.769-229.231-512-512-512v0zM512 874.667c-235.641 0-426.667-191.025-426.667-426.667s191.025-426.667 426.667-426.667c235.641 0 426.667 191.025 426.667 426.667v0c0 235.641-191.025 426.667-426.667 426.667v0zM682.667 405.333h-170.667c-23.436 0.316-42.351 19.231-42.667 42.636v284.475c0 23.564 19.103 42.667 42.667 42.667s42.667-19.103 42.667-42.667v0-241.777h128c23.564 0 42.667-19.103 42.667-42.667s-19.103-42.667-42.667-42.667v0z"/><glyph unicode="" glyph-name="users" data-tags="users" d="M617.025 434.871c-108.758 0-196.923 88.165-196.923 196.923s88.165 196.923 196.923 196.923c108.758 0 196.923-88.165 196.923-196.923v0c0-108.758-88.165-196.923-196.923-196.923v0zM617.025 749.948c-65.254 0-118.154-52.9-118.154-118.154s52.9-118.154 118.154-118.154c65.254 0 118.154 52.9 118.154 118.154v0c0 65.254-52.9 118.154-118.154 118.154v0zM984.615 67.282c-21.633 0.292-39.093 17.751-39.385 39.356v0.028c0 102.4-55.664 170.667-328.206 170.667s-328.206-68.267-328.206-170.667c0-21.751-17.633-39.385-39.385-39.385s-39.385 17.633-39.385 39.385v0c0 249.436 285.145 249.436 406.975 249.436s406.975 0 406.975-249.436c-0.292-21.633-17.751-39.093-39.356-39.385h-0.028zM318.753 392.336h-16.804c-80.61 8.022-143.044 75.489-143.044 157.538 0 87.412 70.862 158.273 158.273 158.273 5.362 0 10.663-0.267 15.888-0.788l-0.66 0.053c21.012-0.932 37.694-18.192 37.694-39.348 0-21.751-17.633-39.385-39.385-39.385-2.183 0-4.326 0.177-6.414 0.519l0.228-0.031c-2.281 0.241-4.928 0.378-7.607 0.378-18.98 0-36.35-6.897-49.738-18.321l0.107 0.089c-15.663-12.706-26.198-31.205-28.33-52.186l-0.027-0.326c-0.273-2.455-0.43-5.301-0.43-8.183 0-40.775 31.191-74.267 71.015-77.915l0.306-0.022c2.052-0.186 4.437-0.293 6.848-0.293 15.535 0 30.039 4.409 42.331 12.043l-0.342-0.198c5.898 3.695 13.065 5.886 20.742 5.886 21.812 0 39.494-17.682 39.494-39.494 0-14.133-7.424-26.533-18.586-33.511l-0.166-0.097c-23.058-14.912-51.098-24.022-81.222-24.678l-0.174-0.002zM39.385 106.667c-21.633 0.292-39.093 17.751-39.385 39.356v0.028c0 141.785 37.809 236.308 223.179 236.308 21.751 0 39.385-17.633 39.385-39.385s-17.633-39.385-39.385-39.385v0c-123.406 0-144.41-39.385-144.41-157.538-0.292-21.633-17.751-39.093-39.356-39.385h-0.028z"/><glyph unicode="" glyph-name="pencil" data-tags="pencil" d="M45.313-62.421c-0.136-0.001-0.296-0.003-0.456-0.003-11.964 0-22.806 4.803-30.702 12.588l0.006-0.006c-8.248 8.149-13.356 19.461-13.356 31.966 0 1.401 0.065 2.787 0.19 4.155l-0.013-0.176 18.572 230.049c0.852 11.108 5.734 20.935 13.169 28.147l662.6 662.6c34.079 31.973 80.059 51.615 130.628 51.615 2.096 0 4.186-0.034 6.267-0.101l-0.303 0.008c52.335-0.418 99.758-21.108 134.873-54.592l-0.079 0.074c34.783-35.688 56.235-84.513 56.235-138.348 0-50.427-18.822-96.457-49.825-131.448l0.181 0.208-663.188-665.585c-7.185-7.16-16.72-11.966-27.348-13.161l-0.211-0.020-233.044-20.968zM105.22 192.789l-12.581-164.15 164.15 14.978 653.004 654.202c15.132 17.82 24.333 41.087 24.333 66.503 0 56.908-46.133 103.043-103.043 103.043-0.341 0-0.681-0.001-1.021-0.006h0.052c-1.828 0.124-3.962 0.194-6.112 0.194-25.163 0-48.075-9.635-65.249-25.419l0.069 0.063zM727.071 875.148v0z"/><glyph unicode="" glyph-name="cloud-download" data-tags="cloud-download" d="M815.587 103.015c-22.863 0-41.398 18.535-41.398 41.398s18.535 41.398 41.398 41.398v0c91.628 0 124.194 45.813 124.194 175.528-8.48 95.471-83.922 170.912-178.638 179.338l-0.753 0.054c-19.914-0.52-38.817-4.118-56.489-10.331l1.291 0.396c-4.655-2-10.071-3.163-15.761-3.163-18.775 0-34.592 12.668-39.37 29.923l-0.067 0.287c-38.556 117.836-147.511 201.455-275.996 201.455-159.262 0-288.519-128.478-289.778-287.443l-0.001-0.119c0-177.736 8.28-285.923 124.194-285.923 22.863 0 41.398-18.535 41.398-41.398s-18.535-41.398-41.398-41.398v0c-206.991 0-206.991 213.062-206.991 368.719-0.047 2.197-0.074 4.787-0.074 7.382 0 205.772 166.811 372.583 372.583 372.583 155.102 0 288.069-94.773 344.148-229.569l0.909-2.466c12.977 2.459 27.905 3.866 43.161 3.866 0.351 0 0.701-0.001 1.052-0.003h-0.054c141.071-8.919 253.269-121.118 262.147-261.377l0.041-0.811c-2.759-70.652-2.759-258.324-209.75-258.324zM512 51.681c-0.057 0-0.125 0-0.193 0-11.369 0-21.653 4.644-29.058 12.14l-156.213 156.213c-6.884 7.373-11.11 17.304-11.11 28.222 0 22.863 18.535 41.398 41.398 41.398 10.919 0 20.849-4.226 28.246-11.134l-0.025 0.022 126.954-126.954 126.954 126.954c7.373 6.884 17.304 11.11 28.222 11.11 22.863 0 41.398-18.535 41.398-41.398 0-10.919-4.226-20.849-11.134-28.246l0.022 0.025-156.209-158.416c-7.128-6.219-16.515-10.011-26.787-10.011-0.868 0-1.73 0.027-2.585 0.080l0.116-0.006zM512 51.681c-22.863 0-41.398 18.535-41.398 41.398v0 351.056c0 22.863 18.535 41.398 41.398 41.398s41.398-18.535 41.398-41.398v0-351.056c0-22.863-18.535-41.398-41.398-41.398v0z"/><glyph unicode="" glyph-name="cloud-upload" data-tags="cloud-upload" d="M815.587 103.015c-22.863 0-41.398 18.535-41.398 41.398s18.535 41.398 41.398 41.398v0c91.628 0 124.194 45.813 124.194 175.528-8.48 95.471-83.922 170.912-178.638 179.338l-0.753 0.054c-19.914-0.52-38.817-4.118-56.489-10.331l1.291 0.396c-4.655-2-10.071-3.163-15.761-3.163-18.775 0-34.592 12.668-39.37 29.923l-0.067 0.287c-38.556 117.836-147.511 201.455-275.996 201.455-159.262 0-288.519-128.478-289.778-287.443l-0.001-0.119c0-189.879 41.951-285.923 124.194-285.923 22.863 0 41.398-18.535 41.398-41.398s-18.535-41.398-41.398-41.398v0c-137.994 0-206.991 124.194-206.991 368.719-0.047 2.197-0.074 4.787-0.074 7.382 0 205.772 166.811 372.583 372.583 372.583 155.102 0 288.069-94.773 344.148-229.569l0.909-2.466c12.977 2.459 27.905 3.866 43.161 3.866 0.351 0 0.701-0.001 1.052-0.003h-0.054c141.071-8.919 253.269-121.118 262.147-261.377l0.041-0.811c-2.759-70.652-2.759-258.324-209.75-258.324zM668.209 246.53c-11.406 0.137-21.709 4.745-29.262 12.15l-126.947 126.947-126.954-126.954c-7.373-6.884-17.304-11.11-28.222-11.11-22.863 0-41.398 18.535-41.398 41.398 0 10.919 4.226 20.849 11.134 28.246l-0.022-0.025 156.209 156.209c7.427 7.616 17.79 12.341 29.254 12.341s21.827-4.725 29.246-12.331l0.008-0.009 156.209-156.209c7.48-7.489 12.108-17.832 12.108-29.254s-4.626-21.765-12.108-29.256v0c-7.6-7.307-17.868-11.888-29.205-12.143l-0.049-0.001zM512 51.681c-22.863 0-41.398 18.535-41.398 41.398v0 351.056c0 22.863 18.535 41.398 41.398 41.398s41.398-18.535 41.398-41.398v0-351.056c0-22.863-18.535-41.398-41.398-41.398v0z"/><glyph unicode="" glyph-name="cloud" data-tags="cloud" d="M761.085 74.373h-387.465c-206.337 0.017-373.598 167.289-373.598 373.627 0 206.348 167.278 373.627 373.627 373.627 152.926 0 284.392-91.876 342.215-223.439l0.939-2.397c13.246 2.68 28.531 4.285 44.166 4.428l0.115 0.001c141.466-8.944 253.978-121.457 262.882-262.11l0.042-0.813c0-145.209-117.715-262.923-262.923-262.923v0zM373.619 738.599c-160.494 0-290.599-130.105-290.599-290.599s130.105-290.599 290.599-290.599v0h387.465c99.226 0.314 179.581 80.668 179.895 179.864v0.030c-8.504 95.738-84.157 171.391-179.139 179.84l-0.755 0.054c-19.989-0.459-38.949-4.276-56.529-10.907l1.178 0.389c-4.752-1.958-10.27-3.095-16.052-3.095s-11.3 1.136-16.34 3.199l0.288-0.104c-9.801 5.017-17.16 13.636-20.404 24.069l-0.077 0.287c-36.721 121.012-147.288 207.574-278.073 207.574-0.511 0-1.022-0.001-1.533-0.004h0.079z"/><glyph unicode="" glyph-name="align-right" data-tags="align-right" d="M980.093 521.139h-585.117c-24.236 0-43.884 19.648-43.884 43.884s19.648 43.884 43.884 43.884v0h585.117c24.236 0 43.884-19.648 43.884-43.884s-19.648-43.884-43.884-43.884v0zM984.189 755.186h-936.187c-24.236 0-43.884 19.648-43.884 43.884s19.648 43.884 43.884 43.884v0h936.187c24.236 0 43.884-19.648 43.884-43.884s-19.648-43.884-43.884-43.884v0zM984.189 287.093h-936.187c-24.236 0-43.884 19.648-43.884 43.884s19.648 43.884 43.884 43.884v0h936.187c24.236 0 43.884-19.648 43.884-43.884s-19.648-43.884-43.884-43.884v0zM980.093 53.046h-585.117c-24.236 0-43.884 19.648-43.884 43.884s19.648 43.884 43.884 43.884v0h585.117c24.236 0 43.884-19.648 43.884-43.884s-19.648-43.884-43.884-43.884v0z"/><glyph unicode="" glyph-name="align-left" data-tags="align-left" d="M624.033 506.048h-580.479c-24.044 0-43.536 19.492-43.536 43.536s19.492 43.536 43.536 43.536v0h580.479c24.044 0 43.536-19.492 43.536-43.536s-19.492-43.536-43.536-43.536v0zM980.446 738.239h-928.766c-24.044 0-43.536 19.492-43.536 43.536s19.492 43.536 43.536 43.536v0h928.766c24.044 0 43.536-19.492 43.536-43.536s-19.492-43.536-43.536-43.536v0zM980.446 273.857h-928.766c-24.044 0-43.536 19.492-43.536 43.536s19.492 43.536 43.536 43.536v0h928.766c24.044 0 43.536-19.492 43.536-43.536s-19.492-43.536-43.536-43.536v0zM624.033 41.665h-580.479c-24.044 0-43.536 19.492-43.536 43.536s19.492 43.536 43.536 43.536v0h580.479c24.044 0 43.536-19.492 43.536-43.536s-19.492-43.536-43.536-43.536v0z"/><glyph unicode="" glyph-name="align-center" data-tags="align-center" d="M804.558 521.139h-585.117c-24.236 0-43.884 19.648-43.884 43.884s19.648 43.884 43.884 43.884v0h585.117c24.236 0 43.884-19.648 43.884-43.884s-19.648-43.884-43.884-43.884v0zM980.093 755.186h-936.187c-24.236 0-43.884 19.648-43.884 43.884s19.648 43.884 43.884 43.884v0h936.187c24.236 0 43.884-19.648 43.884-43.884s-19.648-43.884-43.884-43.884v0zM980.093 287.093h-936.187c-24.236 0-43.884 19.648-43.884 43.884s19.648 43.884 43.884 43.884v0h936.187c24.236 0 43.884-19.648 43.884-43.884s-19.648-43.884-43.884-43.884v0zM804.558 53.046h-585.117c-24.236 0-43.884 19.648-43.884 43.884s19.648 43.884 43.884 43.884v0h585.117c24.236 0 43.884-19.648 43.884-43.884s-19.648-43.884-43.884-43.884v0z"/><glyph unicode="" glyph-name="align-justify" data-tags="align-justify" d="M980.093 521.139h-936.187c-24.236 0-43.884 19.648-43.884 43.884s19.648 43.884 43.884 43.884v0h936.187c24.236 0 43.884-19.648 43.884-43.884s-19.648-43.884-43.884-43.884v0zM980.093 755.186h-936.187c-24.236 0-43.884 19.648-43.884 43.884s19.648 43.884 43.884 43.884v0h936.187c24.236 0 43.884-19.648 43.884-43.884s-19.648-43.884-43.884-43.884v0zM980.093 287.093h-936.187c-24.236 0-43.884 19.648-43.884 43.884s19.648 43.884 43.884 43.884v0h936.187c24.236 0 43.884-19.648 43.884-43.884s-19.648-43.884-43.884-43.884v0zM980.093 53.046h-936.187c-24.236 0-43.884 19.648-43.884 43.884s19.648 43.884 43.884 43.884v0h936.187c24.236 0 43.884-19.648 43.884-43.884s-19.648-43.884-43.884-43.884v0z"/><glyph unicode="" glyph-name="cog" data-tags="cog" d="M512 276.561c-94.683 0-171.439 76.755-171.439 171.439s76.755 171.439 171.439 171.439c94.683 0 171.439-76.755 171.439-171.439v0c0-94.683-76.755-171.439-171.439-171.439v0zM512 531.671c-46.211 0-83.671-37.462-83.671-83.671s37.462-83.671 83.671-83.671c46.211 0 83.671 37.462 83.671 83.671v0c0 46.211-37.462 83.671-83.671 83.671v0zM515.511-63.977c-71.489 0.329-129.316 58.359-129.316 129.895 0 0.411 0.001 0.823 0.005 1.234v-0.063c-0.496 11.009-7.26 20.325-16.788 24.505l-0.181 0.070c-3.653 1.718-7.933 2.721-12.448 2.721-7.858 0-15.007-3.038-20.337-8.003l0.018 0.016c-23.441-23.268-55.642-37.739-91.222-38.032h-0.056c-0.252-0.001-0.55-0.003-0.848-0.003-35.579 0-67.876 14.051-91.644 36.906l0.043-0.041c-23.515 23.508-38.058 55.987-38.058 91.864s14.545 68.356 38.058 91.864v0c5.876 5.37 9.547 13.066 9.547 21.622 0 3.145-0.496 6.173-1.414 9.011l0.058-0.207c-5.723 9.782-16.134 16.274-28.071 16.384h-0.015c-71.692 0.291-129.966 57.335-132.231 128.518l-0.005 0.208c0.332 71.488 58.36 129.312 129.895 129.312 0.206 0 0.413 0 0.618-0.001h-0.032c11.009 0.496 20.325 7.26 24.505 16.788l0.070 0.181c1.718 3.653 2.721 7.933 2.721 12.448 0 7.858-3.038 15.007-8.003 20.337l0.016-0.018c-23.268 23.441-37.739 55.642-38.032 91.222v0.056c-0.012 0.671-0.019 1.462-0.019 2.255 0 35.137 14.077 66.986 36.901 90.213l-0.018-0.019c23.508 23.515 55.987 38.058 91.864 38.058s68.356-14.545 91.864-38.058v0c6.075-5.789 14.317-9.35 23.391-9.35 3.125 0 6.153 0.422 9.028 1.214l-0.239-0.056c10.177 5.653 17.174 15.957 18.131 27.962l0.008 0.123c0 0.019 0 0.041 0 0.063 0 71.915 57.154 130.481 128.518 132.752l0.208 0.005c71.237-0.66 128.732-58.56 128.732-129.89 0-0.413-0.001-0.826-0.005-1.238v0.063c0.477-11.185 6.924-20.76 16.218-25.665l0.166-0.080c2.998-1.135 6.465-1.792 10.084-1.792 7.909 0 15.084 3.138 20.35 8.236l-0.008-0.007c23.441 23.268 55.642 37.739 91.222 38.032h0.056c1.163 0.038 2.53 0.062 3.903 0.062 34.624 0 65.95-14.12 88.535-36.914l0.010-0.010c23.515-23.508 38.058-55.987 38.058-91.864s-14.545-68.356-38.058-91.864v0c-4.99-5.871-8.027-13.54-8.027-21.916 0-3.667 0.581-7.197 1.657-10.505l-0.067 0.24c5.653-10.177 15.957-17.174 27.962-18.131l0.123-0.008c71.192-0.937 128.814-57.74 131.062-128.518l0.005-0.208c-0.66-71.237-58.56-128.732-129.89-128.732-0.413 0-0.826 0.001-1.238 0.005h0.063c-11.185-0.477-20.76-6.924-25.665-16.218l-0.080-0.166c-1.135-2.998-1.792-6.465-1.792-10.084 0-7.909 3.138-15.084 8.236-20.35l-0.007 0.008c23.268-23.441 37.739-55.642 38.032-91.222v-0.056c0.012-0.671 0.019-1.462 0.019-2.255 0-35.137-14.077-66.986-36.901-90.213l0.018 0.019c-23.508-23.515-55.987-38.058-91.864-38.058s-68.356 14.545-91.864 38.058v0c-5.258 5.092-12.433 8.23-20.341 8.23-3.62 0-7.086-0.657-10.287-1.86l0.202 0.066c-9.782-5.723-16.274-16.134-16.384-28.071v-0.015c-0.937-71.192-57.74-128.814-128.518-131.062l-0.208-0.005zM356.944 182.357c0.372 0.004 0.812 0.007 1.252 0.007 15.867 0 30.927-3.45 44.471-9.643l-0.669 0.274c41.82-17.762 70.846-58.017 71.967-105.181l0.003-0.14c-0.003-0.185-0.004-0.402-0.004-0.62 0-23.297 18.4-42.297 41.461-43.26l0.088-0.003c23.005 1.873 40.964 21.005 40.964 44.331 0 0.254-0.003 0.509-0.007 0.761v-0.038c0.3 47.575 28.116 88.582 68.322 107.933l0.723 0.313c13.278 5.676 28.727 8.976 44.947 8.976 32.246 0 61.445-13.042 82.611-34.139l-0.003 0.003c7.488-7.488 17.831-12.119 29.255-12.119 22.85 0 41.374 18.524 41.374 41.374 0 11.425-4.631 21.769-12.119 29.255v0c-20.848 21.12-33.725 50.154-33.725 82.193 0 16.378 3.364 31.971 9.44 46.123l-0.291-0.761c18.745 40.97 59.339 68.943 106.478 69.044h0.014c0.185-0.003 0.403-0.004 0.621-0.004 22.975 0 41.712 18.138 42.674 40.875l0.003 0.088c-1.57 22.953-20.575 40.976-43.788 40.976-0.446 0-0.889-0.007-1.332-0.019l0.064 0.001c-47.872 1.343-88.773 29.867-107.929 70.632l-0.317 0.752c-5.566 13.342-8.8 28.841-8.8 45.097 0 32.536 12.954 62.046 33.987 83.655l-0.026-0.027c7.488 7.488 12.119 17.831 12.119 29.255 0 22.85-18.524 41.374-41.374 41.374-11.425 0-21.769-4.631-29.255-12.119v0c-20.824-19.383-48.841-31.278-79.638-31.278-63.284 0-114.836 50.233-116.956 113.001l-0.005 0.195c0.003 0.185 0.004 0.403 0.004 0.621 0 22.975-18.138 41.712-40.875 42.674l-0.088 0.003c-22.953-1.57-40.976-20.575-40.976-43.788 0-0.446 0.007-0.889 0.019-1.332l-0.001 0.064c-1.343-47.872-29.867-88.773-70.632-107.929l-0.752-0.317c-13.342-5.566-28.841-8.8-45.097-8.8-32.536 0-62.046 12.954-83.655 33.987l0.027-0.026c-7.488 7.488-17.831 12.119-29.255 12.119-22.85 0-41.374-18.524-41.374-41.374 0-11.425 4.631-21.769 12.119-29.255v0c20.603-21.075 33.316-49.942 33.316-81.777 0-16.537-3.43-32.274-9.617-46.535l0.292 0.757c-17.762-41.82-58.017-70.846-105.181-71.967l-0.14-0.003c-0.185 0.003-0.402 0.004-0.62 0.004-23.297 0-42.297-18.4-43.26-41.461l-0.003-0.088c1.873-23.005 21.005-40.964 44.331-40.964 0.254 0 0.509 0.003 0.761 0.007h-0.038c47.575-0.3 88.582-28.116 107.933-68.322l0.313-0.723c5.676-13.278 8.976-28.727 8.976-44.947 0-32.246-13.042-61.445-34.139-82.611l0.003 0.003c-7.488-7.488-12.119-17.831-12.119-29.255 0-22.85 18.524-41.374 41.374-41.374 11.425 0 21.769 4.631 29.255 12.119v0c21.423 20.481 50.464 33.15 82.462 33.352h0.040zM825.038 320.445v0z"/><glyph unicode="" glyph-name="print" data-tags="print" d="M863.086 170.057h-117.028c-24.237 0-43.886 19.648-43.886 43.886s19.648 43.886 43.886 43.886v0h117.028c40.395 0 73.142 32.747 73.142 73.142v0 234.058c0 40.395-32.747 73.142-73.142 73.142v0h-702.171c-40.395 0-73.142-32.747-73.142-73.142v0-234.058c0-40.395 32.747-73.142 73.142-73.142v0h117.028c24.237 0 43.886-19.648 43.886-43.886s-19.648-43.886-43.886-43.886v0h-117.028c-88.87 0-160.914 72.044-160.914 160.914v0 234.058c0 88.87 72.044 160.914 160.914 160.914v0h702.171c88.87 0 160.914-72.044 160.914-160.914v0-234.058c0-88.87-72.044-160.914-160.914-160.914v0zM746.058 638.172c-24.106 0.325-43.561 19.78-43.886 43.854v190.203h-380.342v-190.172c0-24.237-19.648-43.886-43.886-43.886s-43.886 19.648-43.886 43.886v0 204.8c0 40.395 32.747 73.142 73.142 73.142v0h409.6c40.395 0 73.142-32.747 73.142-73.142v0-204.8c-0.325-24.106-19.78-43.561-43.854-43.886h-0.032zM716.8-64h-409.6c-40.395 0-73.142 32.747-73.142 73.142v0 409.6c0 40.395 32.747 73.142 73.142 73.142v0h409.6c40.395 0 73.142-32.747 73.142-73.142v0-409.6c0-40.395-32.747-73.142-73.142-73.142v0zM321.828 23.772h380.342v380.342h-380.342z"/><glyph unicode="" glyph-name="filter" data-tags="filter" d="M632.463-63.971h-240.928c-24.813 0.335-44.839 20.361-45.174 45.141v466.83l-322.241 440.294c-5.688 7.337-9.117 16.671-9.117 26.808 0 7.369 1.813 14.314 5.016 20.414l-0.116-0.241c7.747 14.706 22.885 24.586 40.34 24.695h903.493c17.471-0.11 32.608-9.989 40.236-24.445l0.12-0.25c3.089-5.86 4.901-12.805 4.901-20.173 0-10.136-3.43-19.471-9.191-26.908l0.075 0.1-322.241-440.294v-466.797c-0.335-24.813-20.361-44.839-45.141-45.174h-0.032zM436.711 26.377h150.58v436.68c0 0.064 0 0.138 0 0.212 0 9.955 3.401 19.116 9.105 26.383l-0.071-0.093 277.067 380.063h-722.782l278.271-380.063c5.634-7.174 9.035-16.335 9.035-26.29 0-0.075 0-0.15 0-0.224v0.011z"/><glyph unicode="" glyph-name="replay" data-tags="replay" d="M512-63.452c-233.911 0.333-423.443 189.864-423.774 423.743v0.032c0 24.211 19.627 43.839 43.839 43.839s43.839-19.627 43.839-43.839v0c0-185.621 150.475-336.097 336.097-336.097s336.097 150.475 336.097 336.097c0 185.621-150.475 336.097-336.097 336.097v0h-146.13c-24.211 0-43.839 19.627-43.839 43.839s19.627 43.839 43.839 43.839v0h146.13c234.044 0 423.774-189.73 423.774-423.774s-189.73-423.774-423.774-423.774v0zM512 521.064c-0.060 0-0.133 0-0.204 0-12.039 0-22.929 4.918-30.771 12.856l-175.359 175.359c-7.921 7.931-12.821 18.884-12.821 30.979s4.899 23.048 12.821 30.98v0l175.355 175.355c8.025 8.595 19.423 13.953 32.074 13.953 24.211 0 43.839-19.627 43.839-43.839 0-12.65-5.358-24.048-13.927-32.049l-0.026-0.023-144.376-144.376 144.376-144.376c7.921-7.931 12.821-18.884 12.821-30.979s-4.899-23.048-12.821-30.98v0c-7.846-7.942-18.736-12.86-30.775-12.86-0.071 0-0.144 0-0.215 0h0.011z"/><glyph unicode="" glyph-name="bookmark" data-tags="bookmark" d="M848.457-64c-9.363 0.189-18.033 2.998-25.352 7.723l0.191-0.115-311.296 217.088-311.296-217.088c-6.501-4.018-14.382-6.4-22.821-6.4s-16.32 2.381-23.010 6.509l0.189-0.108c-13.4 7.013-22.574 20.486-23.401 36.171l-0.004 0.107v819.2c0 88.87 72.044 160.914 160.914 160.914v0h438.857c88.87 0 160.914-72.044 160.914-160.914v0-819.2c0-0.048 0-0.104 0-0.159 0-16.646-9.393-31.099-23.169-38.347l-0.237-0.114c-5.911-3.304-12.965-5.254-20.477-5.266h-0.004zM512 257.828c0.137 0.001 0.3 0.003 0.464 0.003 9.223 0 17.782-2.846 24.846-7.706l-0.148 0.096 267.411-186.075v734.939c0 40.395-32.747 73.142-73.142 73.142v0h-438.857c-40.395 0-73.142-32.747-73.142-73.142v0-734.939l267.411 186.075c6.916 4.764 15.475 7.609 24.698 7.609 0.163 0 0.325-0.001 0.488-0.003h-0.025z"/><glyph unicode="" glyph-name="globe" data-tags="globe" d="M512 960c-282.769 0-512-229.231-512-512s229.231-512 512-512c282.769 0 512 229.231 512 512v0c0 282.769-229.231 512-512 512v0zM936.391 490.667h-157.013c-21.309 143.377-80.98 269.999-168.128 372.54l0.875-1.056c174.421-43.539 304.877-189.937 324.104-369.605l0.163-1.879zM330.524 405.333h362.951c-28.064-140.685-92.065-263.297-182.001-361.829l0.527 0.585c-89.411 97.947-153.411 220.56-180.673 356.452l-0.803 4.792zM330.524 490.667c28.064 140.685 92.065 263.297 182.001 361.829l-0.527-0.585c89.411-97.947 153.411-220.56 180.673-356.452l0.803-4.792zM411.876 862.151c-86.273-101.485-145.944-228.107-166.755-367.427l-0.499-4.057h-157.013c19.389 181.548 149.845 327.945 321.319 370.86l2.948 0.625zM87.609 407.040h157.013c21.309-143.377 80.98-269.999 168.128-372.54l-0.875 1.056c-173.937 43.335-304.18 188.936-324.092 367.845l-0.175 1.933zM612.124 35.556c86.273 101.485 145.944 228.107 166.755 367.427l0.499 4.057h157.013c-18.688-182.253-149.359-329.449-321.317-372.565l-2.949-0.627z"/><glyph unicode="" glyph-name="ellipsis-v" data-tags="ellipsis-v" d="M614.393 448c0-56.549-45.842-102.393-102.393-102.393s-102.393 45.842-102.393 102.393c0 56.549 45.842 102.393 102.393 102.393s102.393-45.842 102.393-102.393zM614.393 857.569c0-56.549-45.842-102.393-102.393-102.393s-102.393 45.842-102.393 102.393c0 56.549 45.842 102.393 102.393 102.393s102.393-45.842 102.393-102.393zM614.393 38.431c0-56.549-45.842-102.393-102.393-102.393s-102.393 45.842-102.393 102.393c0 56.549 45.842 102.393 102.393 102.393s102.393-45.842 102.393-102.393z"/><glyph unicode="" glyph-name="ellipsis-h" data-tags="ellipsis-h" d="M614.379 448c0-56.54-45.835-102.379-102.379-102.379s-102.379 45.835-102.379 102.379c0 56.54 45.835 102.379 102.379 102.379s102.379-45.835 102.379-102.379zM1023.886 448c0-56.54-45.835-102.379-102.379-102.379s-102.379 45.835-102.379 102.379c0 56.54 45.835 102.379 102.379 102.379s102.379-45.835 102.379-102.379zM204.868 448c0-56.54-45.835-102.379-102.379-102.379s-102.379 45.835-102.379 102.379c0 56.54 45.835 102.379 102.379 102.379s102.379-45.835 102.379-102.379z"/><glyph unicode="" glyph-name="calendar-times" data-tags="calendar-times" d="M788.756 849.297h-69.189v69.189c0 22.927-18.586 41.514-41.514 41.514s-41.514-18.586-41.514-41.514v0-69.189h-249.081v69.189c0 22.927-18.586 41.514-41.514 41.514s-41.514-18.586-41.514-41.514v0-69.189h-69.189c-84.066 0-152.216-68.15-152.216-152.216v0-608.864c0-84.066 68.15-152.216 152.216-152.216v0h553.514c84.066 0 152.216 68.15 152.216 152.216v0 608.864c0 84.066-68.15 152.216-152.216 152.216v0zM235.244 766.27h69.189v-69.189c0-22.927 18.586-41.514 41.514-41.514s41.514 18.586 41.514 41.514v0 69.189h249.081v-69.189c0-22.927 18.586-41.514 41.514-41.514s41.514 18.586 41.514 41.514v0 69.189h69.189c38.212 0 69.189-30.977 69.189-69.189v0-152.216h-691.891v152.216c0 38.212 30.977 69.189 69.189 69.189v0zM788.756 19.027h-553.514c-38.212 0-69.189 30.977-69.189 69.189v0 373.622h691.891v-373.622c0-38.212-30.977-69.189-69.189-69.189v0zM619.381 333.977c-7.448 7.637-17.839 12.375-29.336 12.375s-21.888-4.738-29.328-12.366l-0.008-0.009-48.71-48.71-48.71 48.71c-7.393 6.903-17.353 11.141-28.301 11.141-22.927 0-41.514-18.586-41.514-41.514 0-10.949 4.238-20.907 11.165-28.325l-0.022 0.025 48.71-48.71-48.71-48.71c-7.637-7.448-12.375-17.839-12.375-29.336s4.738-21.888 12.366-29.328l0.009-0.008c7.171-7.515 17.264-12.187 28.45-12.187 0.311 0 0.623 0.004 0.933 0.010l-0.047-0.001c0.057 0 0.126 0 0.193 0 11.401 0 21.713 4.657 29.139 12.174l48.714 48.714 48.71-48.71c7.43-7.52 17.742-12.178 29.142-12.178 0.067 0 0.136 0 0.204 0h-0.010c0.263-0.006 0.575-0.010 0.886-0.010 11.185 0 21.278 4.673 28.435 12.173l0.014 0.016c7.637 7.448 12.375 17.839 12.375 29.336s-4.738 21.888-12.366 29.328l-0.009 0.008-48.71 48.71 48.71 48.71c7.637 7.448 12.375 17.839 12.375 29.336s-4.738 21.888-12.366 29.328l-0.009 0.008z"/><glyph unicode="" glyph-name="calendar-minus" data-tags="calendar-minus" d="M788.756 849.297h-69.189v69.189c0 22.927-18.586 41.514-41.514 41.514s-41.514-18.586-41.514-41.514v0-69.189h-249.081v69.189c0 22.927-18.586 41.514-41.514 41.514s-41.514-18.586-41.514-41.514v0-69.189h-69.189c-84.066 0-152.216-68.15-152.216-152.216v0-608.864c0-84.066 68.15-152.216 152.216-152.216v0h553.514c84.066 0 152.216 68.15 152.216 152.216v0 608.864c0 84.066-68.15 152.216-152.216 152.216v0zM235.244 766.27h69.189v-69.189c0-22.927 18.586-41.514 41.514-41.514s41.514 18.586 41.514 41.514v0 69.189h249.081v-69.189c0-22.927 18.586-41.514 41.514-41.514s41.514 18.586 41.514 41.514v0 69.189h69.189c38.212 0 69.189-30.977 69.189-69.189v0-152.216h-691.891v152.216c0 38.212 30.977 69.189 69.189 69.189v0zM788.756 19.027h-553.514c-38.212 0-69.189 30.977-69.189 69.189v0 373.622h691.891v-373.622c0-38.212-30.977-69.189-69.189-69.189v0zM622.702 265.341h-221.406c-22.927 0-41.514-18.586-41.514-41.514s18.586-41.514 41.514-41.514v0h221.406c22.927 0 41.514 18.586 41.514 41.514s-18.586 41.514-41.514 41.514v0z"/><glyph unicode="" glyph-name="calendar-plus" data-tags="calendar-plus" d="M788.756 849.297h-69.189v69.189c0 22.927-18.586 41.514-41.514 41.514s-41.514-18.586-41.514-41.514v0-69.189h-249.081v69.189c0 22.927-18.586 41.514-41.514 41.514s-41.514-18.586-41.514-41.514v0-69.189h-69.189c-84.066 0-152.216-68.15-152.216-152.216v0-608.864c0-84.066 68.15-152.216 152.216-152.216v0h553.514c84.066 0 152.216 68.15 152.216 152.216v0 608.864c0 84.066-68.15 152.216-152.216 152.216v0zM235.244 766.27h69.189v-69.189c0-22.927 18.586-41.514 41.514-41.514s41.514 18.586 41.514 41.514v0 69.189h249.081v-69.189c0-22.927 18.586-41.514 41.514-41.514s41.514 18.586 41.514 41.514v0 69.189h69.189c38.212 0 69.189-30.977 69.189-69.189v0-152.216h-691.891v152.216c0 38.212 30.977 69.189 69.189 69.189v0zM788.756 19.027h-553.514c-38.212 0-69.189 30.977-69.189 69.189v0 373.622h691.891v-373.622c0-38.212-30.977-69.189-69.189-69.189v0zM622.702 268.108h-69.189v69.189c0 22.927-18.586 41.514-41.514 41.514s-41.514-18.586-41.514-41.514v0-69.189h-69.189c-22.927 0-41.514-18.586-41.514-41.514s18.586-41.514 41.514-41.514v0h69.189v-69.189c0-22.927 18.586-41.514 41.514-41.514s41.514 18.586 41.514 41.514v0 69.189h69.189c22.927 0 41.514 18.586 41.514 41.514s-18.586 41.514-41.514 41.514v0z"/><glyph unicode="" glyph-name="clone" data-tags="clone" d="M629.028 170.057h-468.114c-88.87 0-160.914 72.044-160.914 160.914v0 468.114c0 88.87 72.044 160.914 160.914 160.914v0h468.114c88.87 0 160.914-72.044 160.914-160.914v0-468.114c0-88.87-72.044-160.914-160.914-160.914v0zM160.914 872.228c-40.395 0-73.142-32.747-73.142-73.142v0-468.114c0-40.395 32.747-73.142 73.142-73.142v0h468.114c40.395 0 73.142 32.747 73.142 73.142v0 468.114c0 40.395-32.747 73.142-73.142 73.142v0zM863.086-64h-468.114c-88.87 0-160.914 72.044-160.914 160.914v0 117.028h87.771v-117.028c0-40.395 32.747-73.142 73.142-73.142v0h468.114c40.395 0 73.142 32.747 73.142 73.142v0 468.114c0 40.395-32.747 73.142-73.142 73.142v0h-117.028v87.771h117.028c88.87 0 160.914-72.044 160.914-160.914v0-468.114c0-88.87-72.044-160.914-160.914-160.914v0z"/><glyph unicode="" glyph-name="download" data-tags="download" d="M875.959-64h-727.917c-82.563 3.472-148.18 71.248-148.18 154.349 0 2.309 0.051 4.607 0.151 6.89l-0.011-0.325v175.543c0 24.237 19.648 43.886 43.886 43.886s43.886-19.648 43.886-43.886v0-175.543c-0.162-1.762-0.255-3.81-0.255-5.881 0-34.276 25.406-62.617 58.412-67.222l0.357-0.041h729.673c33.364 4.645 58.77 32.987 58.77 67.263 0 2.069-0.093 4.118-0.274 6.141l0.019-0.261v175.543c0 24.237 19.648 43.886 43.886 43.886s43.886-19.648 43.886-43.886v0-175.543c0.091-1.983 0.143-4.309 0.143-6.646 0-82.485-64.648-149.87-146.039-154.251l-0.389-0.016zM512 228.571c-0.060 0-0.133 0-0.204 0-12.052 0-22.954 4.923-30.804 12.869l-234.062 234.062c-7.297 7.816-11.778 18.344-11.778 29.918 0 24.237 19.648 43.886 43.886 43.886 11.575 0 22.102-4.48 29.944-11.803l-0.026 0.023 203.044-203.044 203.044 203.044c7.816 7.297 18.344 11.778 29.918 11.778 24.237 0 43.886-19.648 43.886-43.886 0-11.575-4.48-22.102-11.803-29.944l0.023 0.026-234.058-234.058c-7.854-7.95-18.756-12.874-30.808-12.874-0.071 0-0.144 0-0.215 0h0.011zM512 228.571c-24.106 0.325-43.561 19.78-43.886 43.854v643.688c0 24.237 19.648 43.886 43.886 43.886s43.886-19.648 43.886-43.886v0-643.657c-0.325-24.106-19.78-43.561-43.854-43.886h-0.032z"/><glyph unicode="" glyph-name="copy" data-tags="copy" d="M907.406 658.043l-290.385 290.385c-7.121 7.13-16.959 11.543-27.829 11.553h-129.703c-79.752 0-144.404-64.652-144.404-144.404v0-65.638h-65.638c-79.752 0-144.404-64.652-144.404-144.404v0-525.108c0-79.752 64.652-144.404 144.404-144.404v0h367.575c79.752 0 144.404 64.652 144.404 144.404v0 65.638h13.128c79.752 0 144.404 64.652 144.404 144.404v0 341.319c-0.443 10.296-4.774 19.502-11.552 26.254l-0.001 0.001zM630.149 825.552l154.382-154.382h-154.382zM682.66 80.425c0-36.251-29.387-65.638-65.638-65.638v0h-367.575c-36.251 0-65.638 29.387-65.638 65.638v0 525.108c0 36.251 29.387 65.638 65.638 65.638v0h65.638v-380.702c0-79.752 64.652-144.404 144.404-144.404v0h223.17zM774.553 224.83h-315.064c-36.251 0-65.638 29.387-65.638 65.638v0 525.108c0 36.251 29.387 65.638 65.638 65.638v0h91.894v-249.426c0.292-21.632 17.751-39.091 39.355-39.383h249.455v-301.936c0-36.251-29.387-65.638-65.638-65.638v0z"/><glyph unicode="" glyph-name="file" data-tags="file" d="M894.081 623.535l-323.57 323.57c-7.935 7.944-18.897 12.862-31.009 12.873h-261.55c-88.866 0-160.907-72.041-160.907-160.907v0-702.14c0-88.866 72.041-160.907 160.907-160.907v0h468.093c88.866 0 160.907 72.041 160.907 160.907v0 497.35c-0.494 11.473-5.32 21.731-12.872 29.254l-0.001 0.001zM585.139 810.188l172.024-172.024h-172.024zM746.047 23.791h-468.093c-40.394 0-73.139 32.746-73.139 73.139v0 702.14c0 40.394 32.746 73.139 73.139 73.139v0h219.419v-277.931c0.325-24.105 19.779-43.559 43.852-43.884h277.962v-453.466c0-40.394-32.746-73.139-73.139-73.139v0z"/><glyph unicode="" glyph-name="question-circle" data-tags="question-circle" d="M512 960c-282.769 0-512-229.231-512-512s229.231-512 512-512c282.769 0 512 229.231 512 512v0c0 282.769-229.231 512-512 512v0zM512 21.333c-235.641 0-426.667 191.025-426.667 426.667s191.025 426.667 426.667 426.667c235.641 0 426.667-191.025 426.667-426.667v0c0-235.641-191.025-426.667-426.667-426.667v0zM381.156 692.623c-33.393-33.448-54.044-79.627-54.044-130.628 0-0.076 0-0.152 0-0.228v0.012c0-23.564 19.103-42.667 42.667-42.667s42.667 19.103 42.667 42.667v0c-0.001 0.156-0.001 0.341-0.001 0.525 0 27.345 11.088 52.101 29.015 70.016v0c18.327 17.443 43.181 28.173 70.543 28.173s52.216-10.731 70.585-28.213l-0.043 0.040c18.449-18.085 29.885-43.264 29.885-71.115 0-54.983-44.572-99.556-99.556-99.556-0.307 0-0.613 0.001-0.919 0.004h0.047c-23.436-0.316-42.351-19.231-42.667-42.636v-56.92c0-23.564 19.103-42.667 42.667-42.667s42.667 19.103 42.667 42.667v0 19.343c34.751 8.129 64.687 25.311 88.169 48.916l0.008 0.008c33.387 33.532 54.025 79.777 54.025 130.844s-20.64 97.313-54.032 130.851l0.007-0.007c-34.036 32.508-80.253 52.515-131.144 52.515-50.6 0-96.58-19.779-130.632-52.028l0.087 0.081zM583.111 206.223c0-39.273-31.837-71.111-71.111-71.111s-71.111 31.837-71.111 71.111c0 39.273 31.837 71.111 71.111 71.111s71.111-31.837 71.111-71.111z"/><glyph unicode="" glyph-name="question" data-tags="question" d="M750.032 861.486c-60.88 61-145.050 98.738-238.034 98.738-185.726 0-336.287-150.56-336.287-336.287 0-0.17 0-0.34 0-0.511v0.026c0-24.225 19.639-43.864 43.864-43.864s43.864 19.639 43.864 43.864v0c0 0.174 0 0.378 0 0.584 0 137.598 111.546 249.145 249.145 249.145s249.145-111.546 249.145-249.145c0-137.598-111.546-249.145-249.145-249.145-0.206 0-0.411 0-0.617 0.001h0.032c-24.093-0.325-43.539-19.77-43.864-43.832v-117c0-24.225 19.639-43.864 43.864-43.864s43.864 19.639 43.864 43.864v0 76.031c165.808 22.845 292.141 163.614 292.141 333.889 0 92.678-37.425 176.615-97.988 237.522l0.016-0.016zM585.105 9.365c0-40.375-32.73-73.105-73.105-73.105s-73.105 32.73-73.105 73.105c0 40.375 32.73 73.105 73.105 73.105s73.105-32.73 73.105-73.105z"/><glyph unicode="" glyph-name="save" data-tags="save" d="M804.571-64h-585.143c-88.87 0-160.914 72.044-160.914 160.914v0 702.171c0 88.87 72.044 160.914 160.914 160.914v0h438.857c12.114-0.011 23.078-4.929 31.012-12.872v0l263.314-265.070c7.945-7.935 12.863-18.898 12.874-31.011v-554.133c0-88.87-72.044-160.914-160.914-160.914v0zM219.429 872.228c-40.395 0-73.142-32.747-73.142-73.142v0-702.171c0-40.395 32.747-73.142 73.142-73.142v0h585.143c40.395 0 73.142 32.747 73.142 73.142v0 537.747l-237.568 237.568zM789.943-20.114h-87.771v365.715h-380.342v-365.715h-87.771v380.342c0 40.395 32.747 73.142 73.142 73.142v0h409.6c40.395 0 73.142-32.747 73.142-73.142v0zM539.501 638.172h-230.547c-41.436 0.331-74.901 33.998-74.901 75.481 0 0.207 0.001 0.413 0.003 0.619v-0.032 201.874h87.771v-190.172h204.8v190.172h87.771v-201.874c0.001-0.174 0.003-0.381 0.003-0.587 0-41.483-33.464-75.152-74.869-75.481h-0.032z"/><glyph unicode="" glyph-name="power-off" data-tags="power-off" d="M512-64.445c-282.822 0.256-511.994 229.587-511.994 512.445 0 141.396 57.267 269.417 149.871 362.133l-0.005-0.005c7.661 7.856 18.351 12.73 30.177 12.73s22.516-4.874 30.169-12.72l0.008-0.009c7.716-7.725 12.49-18.395 12.49-30.177s-4.772-22.451-12.49-30.178v0c-83.727-78.173-135.917-189.204-135.917-312.426 0-235.846 191.191-427.037 427.037-427.037 123.22 0 234.253 52.189 312.196 135.668l0.23 0.248c77.442 77.134 125.361 183.857 125.361 301.773s-47.919 224.639-125.347 301.759l-0.015 0.015c-7.716 7.725-12.49 18.395-12.49 30.177s4.772 22.451 12.49 30.178v0c7.661 7.856 18.351 12.73 30.177 12.73s22.516-4.874 30.169-12.72l0.008-0.009c92.6-92.711 149.866-220.732 149.866-362.128 0-282.858-229.172-512.187-511.97-512.445h-0.024zM512 405.296c-23.456 0.316-42.387 19.247-42.704 42.673v455.537c0 23.584 19.119 42.704 42.704 42.704s42.704-19.119 42.704-42.704v0-455.506c-0.316-23.456-19.247-42.387-42.673-42.704h-0.031z"/><glyph unicode="" glyph-name="tags" data-tags="tags" d="M988.652 537.339l-315.315 315.315c-7.357 7.357-17.342 11.562-27.852 11.562h-606.456c-21.546 0-39.414-17.868-39.414-39.414v-414.113c0-10.51 4.204-20.495 11.562-27.852l315.315-314.789c23.123-23.123 53.604-35.735 86.186-35.735v0c32.582 0 63.589 12.613 86.186 35.735l11.562 11.562c2.103-4.204 4.204-8.409 7.883-11.562 23.649-23.649 55.18-35.735 86.186-35.735s62.537 12.087 86.712 35.735l296.922 296.922c47.297 47.297 47.297 124.549 0 172.373zM443.681 123.751c-8.409-8.409-18.919-12.613-30.481-12.613s-22.598 4.73-30.481 12.613l-304.279 303.228v358.409h358.409l303.753-303.753c16.816-16.816 16.816-44.144 0-60.961l-296.922-296.922zM932.946 420.672l-296.922-296.922c-16.816-16.816-44.67-16.816-61.486 0-3.679 3.679-7.357 5.78-12.087 7.883l233.333 233.333c47.297 47.823 47.297 125.075 0 172.373l-248.048 248.048h80.931l303.753-303.753c16.816-16.816 16.816-44.144 0-60.961zM314.928 631.933c0-36.261-29.429-65.69-65.69-65.69s-65.69 29.429-65.69 65.69 29.429 65.69 65.69 65.69 65.69-29.429 65.69-65.69z"/><glyph unicode="" glyph-name="tag" data-tags="tag" d="M532.53-63.985c-37.212 0-74.423 14.115-102.654 42.345l-415.747 415.105c-8.982 8.982-14.115 21.172-14.115 34.004v484.396c0 26.304 21.814 48.119 48.119 48.119h483.756c12.831 0 25.022-5.132 34.004-14.115l415.747-415.747c55.818-56.46 55.818-148.206 0-204.666 0 0 0 0 0 0l-347.098-347.098c-28.229-28.229-65.442-42.345-102.654-42.345zM96.253 447.358l401.632-400.991c19.248-18.605 50.044-18.605 68.649 0l347.098 347.098c18.605 18.605 18.605 49.402 0 68.649l-401.632 401.632h-415.747v-415.747zM947.637 359.461v0zM287.446 592.357c-44.269 0-80.198 35.928-80.198 80.198s35.928 80.198 80.198 80.198 80.198-35.928 80.198-80.198-35.928-80.198-80.198-80.198z"/><glyph unicode="" glyph-name="lock" data-tags="lock" d="M804.555 550.395h-14.628v131.65c0 153.495-124.432 277.928-277.928 277.928s-277.928-124.432-277.928-277.928v0-131.65h-14.628c-88.865 0-160.905-72.040-160.905-160.905v0-292.555c0-88.865 72.040-160.905 160.905-160.905v0h585.111c88.865 0 160.905 72.040 160.905 160.905v0 292.555c0 88.865-72.040 160.905-160.905 160.905v0zM321.839 682.045c0 105.022 85.138 190.161 190.161 190.161s190.161-85.138 190.161-190.161v0-131.65h-380.321zM877.694 96.934c0-40.393-32.745-73.138-73.138-73.138v0h-585.111c-40.393 0-73.138 32.745-73.138 73.138v0 292.555c0 40.393 32.745 73.138 73.138 73.138v0h585.111c40.393 0 73.138-32.745 73.138-73.138v0z"/><glyph unicode="" glyph-name="unlock" data-tags="unlock" d="M804.555 550.395h-482.716v131.65c0 105.022 85.138 190.161 190.161 190.161s190.161-85.138 190.161-190.161v0c0-24.236 19.647-43.883 43.883-43.883s43.883 19.647 43.883 43.883v0c0 153.495-124.432 277.928-277.928 277.928s-277.928-124.432-277.928-277.928v0-131.65h-14.628c-88.865 0-160.905-72.040-160.905-160.905v0-292.555c0-88.865 72.040-160.905 160.905-160.905v0h585.111c88.865 0 160.905 72.040 160.905 160.905v0 292.555c0 88.865-72.040 160.905-160.905 160.905v0zM877.694 96.934c0-40.393-32.745-73.138-73.138-73.138v0h-585.111c-40.393 0-73.138 32.745-73.138 73.138v0 292.555c0 40.393 32.745 73.138 73.138 73.138v0h585.111c40.393 0 73.138-32.745 73.138-73.138v0z"/><glyph unicode="" glyph-name="inbox" data-tags="inbox" d="M862.966-19.954h-701.931c-88.84 0-160.859 72.019-160.859 160.859v0 350.966c0 24.229 19.642 43.871 43.871 43.871s43.871-19.642 43.871-43.871v0-350.966c-0.014-0.522-0.021-1.138-0.021-1.755 0-40.382 32.736-73.117 73.117-73.117 0.007 0 0.015 0 0.022 0h701.93c40.382 0 73.117 32.736 73.117 73.117v0 350.966c0 24.229 19.642 43.871 43.871 43.871s43.871-19.642 43.871-43.871v0-350.966c-0.991-88.083-72.627-159.104-160.849-159.104-0.004 0-0.007 0-0.011 0h0.001zM512 257.893c-0.038 0-0.085 0-0.13 0-110.716 0-202.222 82.245-216.757 188.973l-0.126 1.134h-250.94c-0.097-0.001-0.211-0.001-0.326-0.001-24.229 0-43.871 19.642-43.871 43.871 0 8.677 2.52 16.767 6.867 23.575l-0.106-0.177 218.184 350.966c17.362 29.96 49.275 49.789 85.818 49.789 1.293 0 2.582-0.025 3.862-0.074l-0.185 0.005h395.422c40.382-0.115 75.22-23.729 91.572-57.882l0.265-0.613 215.844-347.456c2.498-5.344 3.955-11.604 3.955-18.204 0-23.357-18.253-42.45-41.273-43.795l-0.119-0.005h-250.94c-14.66-107.862-106.167-190.107-216.883-190.107-0.047 0-0.092 0-0.138 0h0.007zM123.014 533.987h213.504c24.229 0 43.871-19.642 43.871-43.871v0-12.869c0-72.687 58.925-131.612 131.612-131.612s131.612 58.925 131.612 131.612v0 12.869c0 24.229 19.642 43.871 43.871 43.871v0h213.504l-175.483 284.282c-4.679 8.189-9.36 11.698-15.208 11.698h-396.006c-5.783-0.148-10.777-3.381-13.412-8.109l-0.041-0.081z"/><glyph unicode="" glyph-name="video" data-tags="video" d="M570.515 53.029h-409.6c-88.87 0-160.914 72.044-160.914 160.914v0 468.114c0 88.87 72.044 160.914 160.914 160.914v0h409.6c88.87 0 160.914-72.044 160.914-160.914v0-468.114c0-88.87-72.044-160.914-160.914-160.914v0zM160.914 755.2c-40.395 0-73.142-32.747-73.142-73.142v0-468.114c0-40.395 32.747-73.142 73.142-73.142v0h409.6c40.395 0 73.142 32.747 73.142 73.142v0 468.114c0 40.395-32.747 73.142-73.142 73.142v0zM980.114 170.057c-8.437 0.136-16.291 2.51-23.030 6.553l0.21-0.117-292.571 175.543c-12.706 7.831-21.051 21.663-21.065 37.447v117.029c0.014 15.785 8.359 29.619 20.876 37.34l0.189 0.108 292.571 175.543c6.348 3.861 14.026 6.145 22.235 6.145s15.887-2.285 22.428-6.254l-0.192 0.108c13.334-7.666 22.183-21.811 22.235-38.027v-468.122c-0.053-16.223-8.901-30.368-22.022-37.921l-0.213-0.112c-5.841-3.327-12.834-5.288-20.285-5.288-0.48 0-0.959 0.008-1.435 0.025l0.069-0.001zM731.429 414.061l204.8-122.88v313.636l-204.8-122.88z"/><glyph unicode="" glyph-name="folder" data-tags="folder" d="M853.323-1.925h-682.645c-94.253 0-170.661 76.408-170.661 170.661v0 558.528c0 94.253 76.408 170.661 170.661 170.661v0h155.147c0.039 0 0.084 0 0.131 0 13.934 0 26.476-5.965 35.211-15.48l0.032-0.035 171.903-201.070h320.223c0 0 0 0 0.001 0 94.253 0 170.661-76.408 170.661-170.661 0-0.218 0-0.436-0.001-0.655v0.033-341.323c0-94.253-76.408-170.661-170.661-170.661v0zM170.677 804.837c-42.842 0-77.573-34.731-77.573-77.573v0-558.528c0-42.842 34.731-77.573 77.573-77.573v0h682.645c42.842 0 77.573 34.731 77.573 77.573v0 341.323c0 42.842-34.731 77.573-77.573 77.573v0h-341.323c-14.071 0.131-26.67 6.321-35.33 16.085l-0.044 0.049-171.903 201.070z"/><glyph unicode="" glyph-name="folder-open" data-tags="folder-open" d="M82.761 87.994h-83.078v609.242c-0.010 0.662-0.017 1.442-0.017 2.225 0 82.317 66.265 149.157 148.363 150.085l0.088 0.001h133.48c0.27 0.006 0.588 0.010 0.906 0.010 12.364 0 23.485-5.331 31.186-13.821l0.031-0.035 147.88-178.895h271.943c0.175 0.001 0.383 0.001 0.591 0.001 82.895 0 150.096-67.2 150.096-150.096 0-1.168-0.013-2.335-0.040-3.497l0.003 0.173v-27.692h-83.078v27.692c0.013 0.495 0.021 1.077 0.021 1.662 0 37.318-30.252 67.57-67.57 67.57-0.008 0-0.014 0-0.022 0h-291.881c-12.686 0.029-24.015 5.815-31.514 14.885l-0.056 0.069-147.88 178.895h-114.094c-36.362-1.219-65.376-30.988-65.376-67.535 0-0.597 0.008-1.192 0.023-1.785l-0.001 0.088zM795.574 46.454h-754.353c-14.913 0.126-27.961 7.987-35.343 19.762l-0.103 0.177c-3.401 5.891-5.407 12.958-5.407 20.493s2.007 14.601 5.513 20.694l-0.106-0.201 187.203 360.006c7.347 13.219 21.185 22.042 37.092 22.155h752.707c14.913-0.126 27.961-7.987 35.343-19.762l0.103-0.177c3.401-5.891 5.407-12.958 5.407-20.493s-2.007-14.601-5.513-20.694l0.106 0.201-187.203-360.006c-7.071-12.759-20.17-21.423-35.35-22.151l-0.097-0.004zM109.346 129.533h661.305l144.002 276.928h-661.305z"/><glyph unicode="" glyph-name="eye-slash" data-tags="eye-slash" d="M1020.3 465.548c-7.019 15.208-167.289 377.277-508.3 377.277-0.14 0-0.306 0-0.472 0-34.241 0-67.586-3.836-99.63-11.102l3.004 0.573c-18.045-5.713-30.896-22.309-30.896-41.908 0-24.228 19.641-43.869 43.869-43.869 2.026 0 4.020 0.137 5.972 0.403l-0.228-0.025c23.536 5.148 50.592 8.127 78.334 8.188h0.045c244.499 0 384.881-239.819 419.391-307.086-23.064-44.686-47.534-82.99-75.058-118.824l1.357 1.84c-5.75-7.348-9.221-16.722-9.221-26.907 0-24.18 19.562-43.79 43.724-43.869h0.007c13.993 0.045 26.437 6.635 34.437 16.866l0.073 0.096c34.924 43.997 66.128 93.737 91.55 146.775l2.039 4.721c2.455 5.422 3.887 11.757 3.887 18.425s-1.431 13.003-4.002 18.713l0.117-0.288zM192.045 829.956c-7.813 7.295-18.337 11.773-29.907 11.773-24.228 0-43.869-19.641-43.869-43.869 0-11.571 4.479-22.094 11.798-29.933l-0.023 0.026 53.813-53.813c-74.699-68.875-135.393-151.659-178.181-244.402l-1.975-4.776c-2.203-5.093-3.485-11.025-3.485-17.256s1.282-12.161 3.596-17.545l-0.111 0.289c7.019-15.208 167.289-377.277 508.3-377.277 0.681-0.004 1.487-0.005 2.294-0.005 94.711 0 182.793 28.386 256.201 77.116l-1.714-1.069 63.172-63.172c7.936-7.927 18.897-12.83 31.001-12.83s23.064 4.902 31.002 12.83v0c7.927 7.936 12.83 18.897 12.83 31.001s-4.902 23.064-12.83 31.002v0zM416.073 479.001l129.268-129.853c-9.942-3.409-21.397-5.378-33.312-5.378-28.107 0-53.656 10.952-72.612 28.824l0.052-0.049c-18.724 18.468-30.323 44.118-30.323 72.478 0 13.277 2.543 25.962 7.167 37.592l-0.241-0.688zM512 140.914c-245.083 0-384.881 240.404-419.391 307.086 39.962 79.399 91.284 146.975 152.768 203.701l0.481 0.439 104.701-104.701c-17.797-28.341-28.353-62.795-28.353-99.714 0-104.667 84.849-189.516 189.516-189.516 36.919 0 71.373 10.557 100.508 28.817l-0.792-0.463 94.173-94.173c-54.756-32.362-120.666-51.482-191.042-51.482-0.903 0-1.805 0.003-2.708 0.010l0.138-0.001z"/><glyph unicode="" glyph-name="eye" data-tags="eye" d="M512 53.029c-341.139 0-501.467 362.204-508.489 377.417-2.22 5.185-3.511 11.22-3.511 17.554s1.291 12.369 3.623 17.853l-0.112-0.299c7.022 15.213 167.351 377.417 508.489 377.417s501.467-362.204 508.489-377.417c2.22-5.185 3.511-11.22 3.511-17.554s-1.291-12.369-3.623-17.853l0.112 0.299c-7.022-15.213-167.351-377.417-508.489-377.417zM92.453 448c34.523-67.292 175.543-307.2 419.547-307.2s385.024 239.908 419.547 307.2c-34.523 67.292-175.543 307.2-419.547 307.2s-385.024-239.908-419.547-307.2zM512 257.828c-105.028 0-190.172 85.142-190.172 190.172s85.142 190.172 190.172 190.172c105.028 0 190.172-85.142 190.172-190.172v0c-0.332-104.895-85.277-189.84-190.139-190.172h-0.032zM512 550.4c-56.554 0-102.4-45.845-102.4-102.4s45.845-102.4 102.4-102.4c56.554 0 102.4 45.845 102.4 102.4v0c-0.331 56.421-45.979 102.070-102.369 102.4h-0.032z"/><glyph unicode="" glyph-name="list" data-tags="list" d="M967.082 399.241h-715.127c-26.929 0-48.759 21.83-48.759 48.759s21.83 48.759 48.759 48.759v0h715.127c26.929 0 48.759-21.83 48.759-48.759s-21.83-48.759-48.759-48.759v0zM967.082 691.793h-715.127c-26.929 0-48.759 21.83-48.759 48.759s21.83 48.759 48.759 48.759v0h715.127c26.929 0 48.759-21.83 48.759-48.759s-21.83-48.759-48.759-48.759v0zM967.082 106.689h-715.127c-26.929 0-48.759 21.83-48.759 48.759s21.83 48.759 48.759 48.759v0h715.127c26.929 0 48.759-21.83 48.759-48.759s-21.83-48.759-48.759-48.759v0zM56.918 675.54c-0.236-0.003-0.517-0.005-0.797-0.005-8.607 0-16.825 1.673-24.344 4.711l0.436-0.155c-8.191 4.021-15.246 8.79-21.551 14.388l0.098-0.085c-11.653 11.746-18.854 27.923-18.854 45.783 0 0.133 0 0.264 0.002 0.396v-0.020c0.258 17.936 7.392 34.155 18.879 46.185l-0.024-0.026c5.935 5.857 13.086 10.5 21.038 13.514l0.416 0.139c7.303 3.084 15.795 4.877 24.704 4.877s17.401-1.792 25.134-5.036l-0.428 0.16c8.326-3.279 15.455-7.903 21.477-13.674l-0.023 0.021c11.461-12.002 18.595-28.224 18.853-46.107v-0.050c0-0.111 0.002-0.244 0.002-0.376 0-17.859-7.201-34.037-18.859-45.786l0.005 0.005c-6.208-5.511-13.262-10.282-20.899-14.055l-0.555-0.248c-7.082-2.883-15.3-4.556-23.909-4.556-0.28 0-0.559 0.002-0.84 0.005h0.043zM56.918 382.988c-8.949 0.111-17.424 2.014-25.124 5.363l0.419-0.163c-8.262 3.501-15.357 8.097-21.513 13.706l0.059-0.053c-11.653 11.746-18.854 27.923-18.854 45.783 0 0.133 0 0.264 0.002 0.396v-0.020c0.258 17.936 7.392 34.155 18.879 46.185l-0.024-0.026c6.096 5.555 13.192 10.151 20.966 13.467l0.488 0.186c8.019 3.808 17.424 6.032 27.348 6.032 3.658 0 7.245-0.302 10.739-0.882l-0.379 0.052 11.702-3.901 11.702-5.851c3.642-2.58 6.822-5.141 9.837-7.878l-0.085 0.076c11.672-12.226 18.854-28.826 18.854-47.102 0-0.125 0-0.251-0.002-0.376v0.020c0-35.905-29.107-65.012-65.012-65.012v0zM56.918 90.436c-0.236-0.003-0.517-0.005-0.797-0.005-8.607 0-16.825 1.673-24.344 4.711l0.436-0.155c-8.191 4.021-15.246 8.79-21.551 14.388l0.098-0.085c-5.555 6.096-10.151 13.192-13.467 20.966l-0.186 0.488c-3.296 7.27-5.216 15.763-5.216 24.704s1.92 17.436 5.371 25.089l-0.155-0.385c3.501 8.262 8.097 15.357 13.706 21.513l-0.053-0.059c11.733 11.582 27.863 18.736 45.663 18.736 9.098 0 17.76-1.87 25.624-5.245l-0.424 0.162c8.326-3.279 15.455-7.903 21.477-13.674l-0.023 0.021c5.555-6.096 10.151-13.192 13.467-20.966l0.186-0.488c3.296-7.27 5.216-15.763 5.216-24.704s-1.92-17.436-5.371-25.089l0.155 0.385c-3.501-8.262-8.097-15.357-13.706-21.513l0.053 0.059c-11.746-11.653-27.923-18.854-45.783-18.854-0.133 0-0.264 0-0.396 0.002h0.020z"/></font>
</defs>
</svg>
